Victoryaxo nudes - Victorya Porn - Victorya Xo & Victoryaxo Onlyfans Videos - SpankBang. 40m. vs lady victorya. 84K 93% 7 years. 4m. Victorya moaning hot. 740 100% 2 months. 9m 1080p. victorya w.

 
10. Next. Watch Victoryaxo Only Fans porn videos for free, here on Pornhub.com. Discover the growing collection of high quality Most Relevant XXX movies and clips. No other sex tube is more popular and features more Victoryaxo Only Fans scenes than Pornhub! Browse through our impressive selection of porn videos in HD quality on any device you own.. Victoryaxo nudes

Victoryaxo's New Albums. victoryaxo onlyfans sex galleries part 2. 2 years ago. 15 photos. Onlyfans great victoryaxo nude gal leaks 5. 2 years ago. 15 photos. victoryaxo terrific onlyfans sex picture mega pack part 8. 2 years ago.MackzJones Nude Fucking Herself With Vibrator Porn Video. Asianbunnyx Onlyfans Leak Eevee Cosplay Dildo Ppv Video. Alinity Stripping Full Nude Christmas Tree Fansly Video. Yuuie Nude Shower Twitch Onlyfans Video. Strawberrytabby Onlyfans Live Hottub Titty Job Video.Aug 24, 2022 · Victoryaxo mega onlyfans. by Mymy · 24.08.2022. Top Celeb Nudes of Victoryaxo Onlyfans Latest Nude Gallery Leaked – Nala Fitness Onlyfans Nude Gallery Leaked Iamvictoryaxo porn video victoryaxo…. Name: [OnlyFans] Victoryaxo – MegaPack. 2 min. victoria matos masturbandose parte 3. SD. 10 min. Curvy big natural tits milf fucked standing anal homemade. HD+. 5 min. Victoryaxo - Pool Side Twerking (Ass Naked), One of the greatest porn sites of the world; most special HD porn videos of XNXX.COM are here. To taste this unique category, take a look at them and enjoy yourself. Victoryaxo - Thick Latina Nudes Photos and Clip from Onlyfans, Patreon, Snapchat, Manyvids, Instagram, Twitter, Twitch, Nudes, NakedApr 10, 2022 · Top Celeb Nudes of Victoryaxo OnlyFans Leaks (49 Photos + 4 Videos) - Victoryaxo is sexy! We bet you’re wondering how she got such a body, right? Well, she Jun 10, 2021 · Victoryaxo exclusive sextape nude porn leaked. in Onlyfans Premium Leaks. Victoryaxo exclusive sextape nude porn leaked. June 10, 2021, 7:11 pm 968.7k Views. Brazilian Sex Pornstar VictoryaXO Nude, Related posts: Victoryaxo onlyfans porn video Victoryaxo 2022 sex Victoryaxo fucking pussy Hot porn star solo pics Turkish porn star nude Ass porn clips xxx ass videos Javhd pervert redhead asian porn star koda riri gagging and humping on a hard and throbbing cock Jena star porn Alyx star all porn videos ...Model - 2M Followers, 3,888 Following, 92 Posts - See Instagram photos and videos from Victorya Addad (@vickyxlikexwoahhhh) Victoryaxo exclusive sextape nude porn leaked. in Onlyfans Premium Leaks. Victoryaxo exclusive sextape nude porn leaked. June 10, 2021, 7:11 pm 968.7k Views.Aug 14, 2022 · by Mymy · 14.08.2022. video,graciebon,,free,sex Graciebon Porn – Gracie Bon & Ssbbw Stephanie Videos – SpankBang bbw graciebon Porn Pics and XXX Videos graciebon tiny asshole pussy…. Spread the loveEnjoy the best pack Graciebon Victoryaxo Porn OnlyFans Update free Graciebon Victoryaxo Porn Porn Videos & Photos, Graciebon Victoryaxo Porn ... Victoryaxo is riding her lover's subrigid penis in front of the camera and enjoying it a lot. Be responsible, know what your children are doing online. Victoryaxo Tube and other famous pornstars at TubePornstars.com. TubePornstars is one of the most complete pornstar databases you will ever find!Victoryaxo, a US-based OnlyFans model, prided herself on her bold and seductive persona. Being a 24-year-old, voluptuous woman, she embraced her sensuality and naughty side, as hinted by her username. Since joining the platform in 2019, she has been unapologetically expressing her sensuality and indulging her fans with her enticing content.Victoryaxo sextape leaked. 3 years ago 968.7k Views. Share. Share on Pinterest Share on Facebook Share on Twitter. leaked sextape Victoryaxo. Previous article Lety Does Stuff Nude Patreon Christmas Lesbian Porn Video Leaked. Next article Mikaela Pascal Nude In The Kitchen Onlyfans Set.Nov 16, 2022 · The hottest Victoryaxo nude photos & videos leaked from Onlyfans, Twitch, Instagram, Twitter and others sites are gathered on ladyda.com making the best collection of hot stuff. Victoryaxo nude pics and clips are here for your true fun, joy and satisfaction! So feel free scrolling Victoryaxo nude photos and watching Victoryaxo clips! aka Victorya Addad / Victorya Hubicki / victoryaxo. User Rating: 8.38/10 (47 votes) Rollover to rate this babe. Current rank: #13803. 41 have favorited her. Age: 23 years young. Born: Wednesday 23rd of February 2000. Birthplace: Florida, United States. 2 years ago. Enjoy Victoryaxo Nude Fucking Porn Video Leaked on LewdStars! The Best Premium Porn Site. Discover the full collection of premium videos and photos.Watch Thick PAWG Iamvictorya Getting Fucked in the Shower video on xHamster - the ultimate collection of free Whipping & Pissing HD porn tube movies!May 20, 2022 · December 9, 2023. December 9, 2023. VictoryaXO Nude Masturbation Video Leaked. Discover Free Leaked Onlyfans, Patreon, Nude Youtube Videos only on InternetChicks.com. Victoryaxo – Thick Latina Nudes. Posted on October 28, 2020 Recently updated on June 3, 2021. Victoryaxo (iamvictoryaa) Nudes, Victoryaxo (iamvictoryaa) Naked Photos and Clip from Onlyfans, Patreon, Snapchat, Manyvids, Instagram, Twitter and Twitch.Jun 1, 2022 · VictoryaXO Ass is SO Thick!! (Keep2share) victoryaxo_is_so_thick_540.mp4 Duration : 15 min 25 s Bit rate : 6 004 kb/s Width : 960 pixels Height : 540 pixels Display aspect ratio : 16:9 Frame rate mode : Constant Frame rate : 23.976 (24000/1001) FPS Color space : YUV Chroma subsampling : 4:2:0 Bit depth : 8 bits Scan type : Progressive Bits/(Pixel*Frame) : 0.483 Stream size : 662 MiB (98% ... Aug 18, 2020 · Leak. victoryaxo Iamvictorya victorya sex tape Blowjob and nudes photos leaks online from her onlyfans, patreon, private premium, Cosplay, geek & gamer. brazilian & lebanese Instagram @Iamvictorya SEE MORE ON fapfappy.com! People have also searched for: victorya xo big tits victorya xo blowjob victorya xo booty victorya xo brunette victorya xo pussybig ass. Previous page 1 / 1 Next. Victorya Xo Porn Videos! - Victoryaxo Onlyfans, Iamvictorya, Victorya Porn - SpankBang. Victoryaxo VictoryaXo New BBC Sextape VictoryaXo New Kkvsh nudes Maria Gjieli, VictoryaXo, Alexas Morgan Orgy victoryaxo sextapes VictoryaXo BBC Anal Creampie VictoryaXo & Alexas Morgan Threesome VictoryaXO BBC Threesome @VictoryaXo VictoryaXo New BBC Victoryaxo creampie VictoryaXo BBC Pounding on the Side of the Road VictoryaXo Sextape POV ... Victorya photos & videos. EroMe is the best place to share your erotic pics and porn videos. Every day, thousands of people use EroMe to enjoy free photos and videos.Victoryaxo - Thick Latina Nudes Photos and Clip from Onlyfans, Patreon, Snapchat, Manyvids, Instagram, Twitter, Twitch, Nudes, NakedOnlyFans Victorya Addad / @victoryaxo. Thread starter enigma1984; Start date May 17, 2023; enigma1984 Well-known member. Approved. May 17, 2023 #1 NicknameVictoryaxo is a hot woman and we have her latest 2022 OnlyFans leaked photos and videos. Victoryaxo xxx porn video and its anal, dildo, fucking, tits contents. Victoryaxo topless sextape videos and nude photos in this content and jerk off her amazing body. You should definitely pay attention to the contents of Victoryaxo of leaked.teaseswinger Onlyfans Nudes Leaks (289 photos + 5 videos) Kristina Rose - kristinarose Onlyfans Nudes Leaks… ← Helenka Demidova OnlyFans Leaks (50 Photos) → shaiden rouge – realshaidenrouge OnlyFans Leaks (50 Photos)Sep 28, 2022 · Watch Latest Celebrity Leaked Nude Photos and Videos from Onlyfans, Twitch, Snapchat, YouTube, Instagram, iCloud Leaks, Online Uncensored Footage, 18+ Movies, Porns, Famous Celeb Sex Tapes and Nipple slips, Scandals, Patreon models, Cosplay, Gamer Girls, and streamers. Discover Hot and Sexy Girls Premium Contents for Free! Graciebon Onlyfans ... Victoryaxo, a US-based OnlyFans model, prided herself on her bold and seductive persona. Being a 24-year-old, voluptuous woman, she embraced her sensuality and naughty side, as hinted by her username. Since joining the platform in 2019, she has been unapologetically expressing her sensuality and indulging her fans with her enticing content.42 93% 37 minutes. 22m 1080p. Updated 80GB Onlyfans Folder in Description. 24 100% 37 minutes. More new porn videos. Iamvictorya Porn Videos! - Victorya Xo, Victoryaxo Onlyfans, Victorya Porn - SpankBang.People have also searched for: victorya xo big tits victorya xo blowjob victorya xo booty victorya xo brunette victorya xo pussybig ass. Previous page 1 / 1 Next. Victorya Xo Porn Videos! - Victoryaxo Onlyfans, Iamvictorya, Victorya Porn - SpankBang.Oct 28, 2020 · Victoryaxo - Thick Latina Nudes Photos and Clip from Onlyfans, Patreon, Snapchat, Manyvids, Instagram, Twitter, Twitch, Nudes, Naked Model - 2M Followers, 3,888 Following, 92 Posts - See Instagram photos and videos from Victorya Addad (@vickyxlikexwoahhhh) gracie bon victoryaxo maria gjieli graciebon onlyfans blahgigi gem jewels graciebon1 victoria cakes drea alexa ely labella. 6m 720p. graciebon. 65k 99% 1 year .2 min. victoria matos masturbandose parte 3. SD. 10 min. Curvy big natural tits milf fucked standing anal homemade. HD+. 5 min. Victoryaxo - Pool Side Twerking (Ass Naked), One of the greatest porn sites of the world; most special HD porn videos of XNXX.COM are here. To taste this unique category, take a look at them and enjoy yourself. 32K Views. 05:31. 87%. 1. 2. Enjoy iamvictorya Porn Videos on XOrgasmo.com totally FREE, iamvictorya XXX totally Nude, Masturbating and Fucking, creating porn content for different categories. Nov 2, 2021 · Enjoy Victoryaxo Nude Fucking Porn Video Leaked on LewdStars! The Best Premium Porn Site. Discover the full collection of premium videos and photos. VictoryaXO He sprays his milk all over my face. OnlyFans. December 23rd, 2022.New Videos Tagged with victoryaxo. 252 views 1:24. Victoryaxo pussy play. 3 days ago. Private 431 views 17:50. Victoryaxo. 4 days ago. 1.7K views 17:48. Victoryaxo x Gucci3rdLeg- XMas Facial.We would like to show you a description here but the site won’t allow us. Victoryaxo OnlyFans Leaks (47 Photos + 2 Videos) Victoryaxo OnlyFans Leaks (49 Photos + 4 Videos) Red Rose - Rosanag OnlyFans OnlyFans Leaks (46… Josipa Karimovic - karimovicjosipa -… ilovesarahj Onlyfans Nudes Leaks (192 photos + 5 videos) jasminegtv Onlyfans Nudes Leaks (190 photos + 5 videos)Victoryaxo Tube Search (42 videos) 13:51 Kendra Karter (Kendrakarter) & Victoryaxo Onlyfans drtuber, babes, blondes, brunettes, yesterday. 19:24 Curvy Brunette Latina - Victoryaxo tnaflix, latina, brunettes, anal sex, oral sex, pornstars, ass, milf, 1 week. 07:10 Big-Chested Brown-Haired, Victoryaxo Is Finger-Tickling Her Moist Vulva In Front ... Best Leaks of Onlyfans: Victoryaxo Leaked Nudes (81 Photos + 1 Videos) aka Victorya Addad / Victorya Hubicki / victoryaxo. User Rating: 8.38/10 (47 votes) Rollover to rate this babe. Current rank: #13803. 41 have favorited her. Age: 23 years young. Born: Wednesday 23rd of February 2000. Birthplace: Florida, United States.Free Nude Pictures Galleries Free porn pics – tons of hardcore galleries, pictures and sex images. Naked girls and women: amateurs and pornstars.Victoryaxo Fanbus 1080p. by pawgfanatic. 977 1mo ago 75%. 18:17. Victoryaxo Friend Onlyfans 480p. by Tony-Tigris1. 31,864 11mo ago 100%. 09:41. Victoryaxo Gets Creampied Outside. Sexy Victoryaxo – Thick Latina Nudes Leaks. about a year ago 683.8k Views. Share. Share on Pinterest Share on Facebook Share on Twitter. Victoryaxo (iamvictoryaa) Nudes, Victoryaxo (iamvictoryaa) Naked Photos and Clip from Onlyfans, Patreon, Snapchat, Manyvids, Instagram, Twitter and Twitch.Victoryaxo - Drips Nut From Her Vaginal Cream Pie. 17 sec Chief1459 - 100% -. Instagram model Mollywoodz naked. 3 min Karlanga69 - 100% -. 1080p. Insane Oily Booty Twerking. 28 sec Paige Steele XXX - 205.1k Views -. 360p. Found her on IG @cloutaddic. 2024.01.05 722.1K Views. Hotleak is the best free porn site of Millions Exclusive Leak contents such as Images, Gallery and Videos.Tags: - victoryaxo huge facial onlyfans. Thothub is the home of daily free leaked nudes from the hottest female Twitch, YouTube, Patreon, Instagram, OnlyFans, TikTok models and streamers. Choose from the widest selection of Sexy Leaked Nudes, Accidental Slips, Bikini Pictures, Banned Streamers and Patreon Creators.Nov 16, 2022 · The hottest Victoryaxo nude photos & videos leaked from Onlyfans, Twitch, Instagram, Twitter and others sites are gathered on ladyda.com making the best collection of hot stuff. Victoryaxo nude pics and clips are here for your true fun, joy and satisfaction! So feel free scrolling Victoryaxo nude photos and watching Victoryaxo clips! aka Victorya Addad / Victorya Hubicki / victoryaxo. User Rating: 8.38/10 (47 votes) Rollover to rate this babe. Current rank: #13803. 41 have favorited her. Age: 23 years young. Born: Wednesday 23rd of February 2000. Birthplace: Florida, United States.People have also searched for: victorya xo big tits victorya xo blowjob victorya xo booty victorya xo brunette victorya xo pussybig ass. Previous page 1 / 1 Next. Victorya Xo Porn Videos! - Victoryaxo Onlyfans, Iamvictorya, Victorya Porn - SpankBang.MackzJones Nude Fucking Herself With Vibrator Porn Video. Asianbunnyx Onlyfans Leak Eevee Cosplay Dildo Ppv Video. Alinity Stripping Full Nude Christmas Tree Fansly Video. Yuuie Nude Shower Twitch Onlyfans Video. Strawberrytabby Onlyfans Live Hottub Titty Job Video.Victoryaxo gets her tight asshole fucked . Victoryaxoo. 374K views. 91%. 54 years ago. 0:35 ... Stunning Teen Gone Nude On Her Onlyfans Live Spicevids. 5:56. People have also searched for: victorya xo big tits victorya xo blowjob victorya xo booty victorya xo brunette victorya xo pussybig ass. Previous page 1 / 1 Next. Victorya Xo Porn Videos! - Victoryaxo Onlyfans, Iamvictorya, Victorya Porn - SpankBang.VictoryaXo - OnlyFans. 2 years ago. 93%. Watch your favorite HD and 4k porn videos on PornTrex. Get your daily dose of porn from our huge collection of free hd and 4k porn videos. Tags: - victoryaxo huge facial onlyfans. Thothub is the home of daily free leaked nudes from the hottest female Twitch, YouTube, Patreon, Instagram, OnlyFans, TikTok models and streamers. Choose from the widest selection of Sexy Leaked Nudes, Accidental Slips, Bikini Pictures, Banned Streamers and Patreon Creators. Victoryaxo - Thick Latina Nudes Photos and Clip from Onlyfans, Patreon, Snapchat, Manyvids, Instagram, Twitter, Twitch, Nudes, Naked0% OnlyFans 5 months ago. 66% Big Boobs 11 months ago. 100% Blowjob 3 months ago. 78% Big Boobs 1 year ago. 59% Premium 3 years ago. 27% Premium 3 years ago. 100% OnlyFans 2 months ago. 74% HD Premium 5 years ago. Victoryaxo Onlyfans Brazillian Babe Twerking.VictoryaXO Nude Livestream Video Leaked. 4 months ago. Nuvid. No video available 80% 18:17. Tokyo And Friend Big Booty. 11 months ago. Eporner. No video available 68% ... Free Nude Pictures Galleries Free porn pics – tons of hardcore galleries, pictures and sex images. Naked girls and women: amateurs and pornstars.Victoryaxo's New Videos. There is no data in this list. mookiemillyonia onlyfans shows part 1. 10 months ago. 8:15. this model has no albums. ADS. Embereon onlyfans nude video pack part 3. 1 year ago. Victoryaxo gets her tight asshole fucked . Victoryaxoo. 374K views. 91%. 54 years ago. 0:35 ... Stunning Teen Gone Nude On Her Onlyfans Live Spicevids. 5:56. 0% OnlyFans 5 months ago. 66% Big Boobs 11 months ago. 100% Blowjob 3 months ago. 78% Big Boobs 1 year ago. 59% Premium 3 years ago. 27% Premium 3 years ago. 100% OnlyFans 2 months ago. 74% HD Premium 5 years ago. Victoryaxo Onlyfans Brazillian Babe Twerking.victoryaxo porn videos. victoryaxo all Trending New Popular Featured. HD. Duration. Date. VICTORYAXO ONLYFANS VICTORYA MARIA GJIELI GRACIEBON BLAHGIGI VICTORYA XO LISSA AIRES DREA ALEXA ALEXAS MORGAN MZ DANI.Highly Recommend: Victoryaxo. Absolutely gorgeous Spanish girl with a big ass. Her content started off as mostly implied nudes but now it's full nude, she does show her face with her nude content also. For the most part she posts daily and sometimes several times a day. She does have PPV content but always posts previews of the content, so you ...MackzJones Nude Fucking Herself With Vibrator Porn Video. Asianbunnyx Onlyfans Leak Eevee Cosplay Dildo Ppv Video. Alinity Stripping Full Nude Christmas Tree Fansly Video. Yuuie Nude Shower Twitch Onlyfans Video. Strawberrytabby Onlyfans Live Hottub Titty Job Video.Victorya photos & videos. EroMe is the best place to share your erotic pics and porn videos. Every day, thousands of people use EroMe to enjoy free photos and videos. 2 min. victoria matos masturbandose parte 3. SD. 10 min. Curvy big natural tits milf fucked standing anal homemade. HD+. 5 min. Victoryaxo - Pool Side Twerking (Ass Naked), One of the greatest porn sites of the world; most special HD porn videos of XNXX.COM are here. To taste this unique category, take a look at them and enjoy yourself. VictoryaXO Nude Livestream Video Leaked. 4 months ago. Nuvid. No video available 80% 18:17. Tokyo And Friend Big Booty. 11 months ago. Eporner. No video available 68% ... Assista vídeos pornô de Victoryaxo de graça, aqui no Pornhub.com. Descubra a crescente coleção de vídeos e filmes Mais relevantes explícitos em alta qualidade. Nenhum outro site pornô é mais popular e tem mais cenas de Victoryaxo do que o Pornhub! Navegue pela nossa incrível seleção de de vídeos pornô em HD em qualquer dispositivo ...Watch Victoryaxo Onlyfans porn videos for free, here on Pornhub.com. Discover the growing collection of high quality Most Relevant XXX movies and clips. No other sex tube is more popular and features more Victoryaxo Onlyfans scenes than Pornhub!Victoryaxo – Thick Latina Nudes. Posted on October 28, 2020 Recently updated on June 3, 2021. Victoryaxo (iamvictoryaa) Nudes, Victoryaxo (iamvictoryaa) Naked Photos and Clip from Onlyfans, Patreon, Snapchat, Manyvids, Instagram, Twitter and Twitch.Aug 18, 2020 · Leak. victoryaxo Iamvictorya victorya sex tape Blowjob and nudes photos leaks online from her onlyfans, patreon, private premium, Cosplay, geek & gamer. brazilian & lebanese Instagram @Iamvictorya SEE MORE ON fapfappy.com!

Jul 23, 2021 · Victoryaxo OnlyFans Leaks (47 Photos + 2 Videos) Victoryaxo OnlyFans Leaks (49 Photos + 4 Videos) Red Rose - Rosanag OnlyFans OnlyFans Leaks (46… Josipa Karimovic - karimovicjosipa -… ilovesarahj Onlyfans Nudes Leaks (192 photos + 5 videos) jasminegtv Onlyfans Nudes Leaks (190 photos + 5 videos) . Victoryaxo nudes

victoryaxo & Alexas Morgan (alexavip) Onlyfans Star Whores 14:33. 11 972. 1 year ago ... alexas morgan onlyfans nude leaked xxx videos 3:56. 599. 1 year ago.. Victoryaxo nudes

Sexy Victoryaxo – Thick Latina Nudes Leaks. about a year ago 683.8k Views. Share. Share on Pinterest Share on Facebook Share on Twitter. Victoryaxo (iamvictoryaa) Nudes, Victoryaxo (iamvictoryaa) Naked Photos and Clip from Onlyfans, Patreon, Snapchat, Manyvids, Instagram, Twitter and Twitch.. squirt on big tits Kristina Rose - kristinarose Onlyfans Nudes Leaks… The Duchess - duchesstheseductress Onlyfans Nudes… ← Jewelz Blu OnlyFans Leaks (49 Photos) → Natalie Wang – nigella_pty OnlyFans Leaks (47 Photos + 2 Videos)Victoryaxo's New Videos. There is no data in this list. mookiemillyonia onlyfans shows part 1. 10 months ago. 8:15. this model has no albums. ADS. Embereon onlyfans nude video pack part 3. 1 year ago. thai babes nude Jan 11, 2022 · Kristina Rose - kristinarose Onlyfans Nudes Leaks… The Duchess - duchesstheseductress Onlyfans Nudes… ← Jewelz Blu OnlyFans Leaks (49 Photos) → Natalie Wang – nigella_pty OnlyFans Leaks (47 Photos + 2 Videos) Jan 11, 2022 · Kristina Rose - kristinarose Onlyfans Nudes Leaks… The Duchess - duchesstheseductress Onlyfans Nudes… ← Jewelz Blu OnlyFans Leaks (49 Photos) → Natalie Wang – nigella_pty OnlyFans Leaks (47 Photos + 2 Videos) Victoryaxo's New Videos. There is no data in this list. mookiemillyonia onlyfans shows part 1. 10 months ago. 8:15. this model has no albums. ADS. Embereon onlyfans nude video pack part 3. 1 year ago.Switch to the dark mode that's kinder on your eyes at night time. Switch to the light mode that's kinder on your eyes at day time.victoryaxo porn. by Serg · April 18, 2022. Watch victoryaxo to my loyal subscribers highly requested from new fans xxx onlyfans porn videos on CamStreams.tv. Iamvictoryaxo porn video victoryaxo leaked horny hot fuck getting fucked by a guy in a sex video. Watch hot chubby instagram model iamvictoryaxo fucking with guy in a leaked porn video.MackzJones Nude Fucking Herself With Vibrator Porn Video. Asianbunnyx Onlyfans Leak Eevee Cosplay Dildo Ppv Video. Alinity Stripping Full Nude Christmas Tree Fansly Video. Yuuie Nude Shower Twitch Onlyfans Video. Strawberrytabby Onlyfans Live Hottub Titty Job Video.Mackenzie Jones Onlyfans Leak Pussy Play Video. a day ago. Watch Victoryaxo Porn Fucked From Behind Video on Gotanynudes.com, the best amateur celebrity porn site. Gotanynudes is home to daily free teen nudes full of the hottest celebs, Twitch streamers and Youtubers. The best tiktok and movie sex tapes XXX here. Watch Iamvictorya tube sex video for free on xHamster, with the hottest collection of Story, Footjob, Solo & Glory Hole HD porn movie scenes! wilda porn iamvictoryaa / vickyxlikexwoahhhh / victoryaxo. Undress AI. Next Page iamvictoryaa / vickyxlikexwoahhhh / victoryaxo. Undress AI. Next PageVictoryaxo Onlyfans Nude Gallery. November 7, 2022, 11:12 am 674 Views. ... where she posts nude and sexy content of herself More. September 29, 2023, 1:38 pm. 18k Views.Victoryaxo exclusive sextape nude porn leaked. in Onlyfans Premium. Victoryaxo exclusive sextape nude porn leaked. June 10, 2021, 7:11 pm 968.7k Views.Aug 24, 2022 · Victoryaxo mega onlyfans. by Mymy · 24.08.2022. Top Celeb Nudes of Victoryaxo Onlyfans Latest Nude Gallery Leaked – Nala Fitness Onlyfans Nude Gallery Leaked Iamvictoryaxo porn video victoryaxo…. Name: [OnlyFans] Victoryaxo – MegaPack. Victoryaxo sex 2022. by Mymy · 18.02.2022. Victoryaxo Homemade BBC 33 Min Sextape October 2021 Victoryaxo Pov BBC Sextape, Victoryaxo SEX TAPE, Victoryaxo leak, Victoryaxo Tapes leaks, Victoryaxo nudes, Victoryaxo Instagram Nudes, Victoryaxo Instagram SEX TAPE. Latest Victoryaxo Sex Tapes 2021, Victoryaxo Reverse Cowgirl POV, Victoryaxo Latest.2024.01.05 722.1K Views. Hotleak is the best free porn site of Millions Exclusive Leak contents such as Images, Gallery and Videos.Victoryaxo's New Videos. There is no data in this list. mookiemillyonia onlyfans shows part 1. 10 months ago. 8:15. this model has no albums. ADS. Embereon onlyfans nude video pack part 3. 1 year ago. Tags: - victoryaxo huge facial onlyfans. Thothub is the home of daily free leaked nudes from the hottest female Twitch, YouTube, Patreon, Instagram, OnlyFans, TikTok models and streamers. Choose from the widest selection of Sexy Leaked Nudes, Accidental Slips, Bikini Pictures, Banned Streamers and Patreon Creators. Victoryaxo mega onlyfans. by Mymy · 24.08.2022. Top Celeb Nudes of Victoryaxo Onlyfans Latest Nude Gallery Leaked – Nala Fitness Onlyfans Nude Gallery Leaked Iamvictoryaxo porn video victoryaxo…. Name: [OnlyFans] Victoryaxo – MegaPack.14 results found. 1. Pornstars. Use family filters of your operating systems and/or browsers; When using a search engine such as Google, Bing or Yahoo; check the safe search settings where you can exclude adult content sites from your search results; Ask your internet service provider if they offer additional filters;Victoryaxo mega onlyfans. by Mymy · 24.08.2022. Top Celeb Nudes of Victoryaxo Onlyfans Latest Nude Gallery Leaked – Nala Fitness Onlyfans Nude Gallery Leaked Iamvictoryaxo porn video victoryaxo…. Name: [OnlyFans] Victoryaxo – MegaPack.Watch porn and videos from Victoryaxo on TubeOrigin. New POV Anal Creampie Fuck Thick Bubble Ass Babe Watch now. skye blue gracie janeModel - 2M Followers, 3,888 Following, 92 Posts - See Instagram photos and videos from Victorya Addad (@vickyxlikexwoahhhh)Victoryaxo Fanbus 1080p. by pawgfanatic. 977 1mo ago 75%. 18:17. Victoryaxo Friend Onlyfans 480p. by Tony-Tigris1. 31,864 11mo ago 100%. 09:41. Victoryaxo Gets Creampied Outside. Dec 30, 2023 · Victoryaxo, a US-based OnlyFans model, prided herself on her bold and seductive persona. Being a 24-year-old, voluptuous woman, she embraced her sensuality and naughty side, as hinted by her username. Since joining the platform in 2019, she has been unapologetically expressing her sensuality and indulging her fans with her enticing content. Model - 2M Followers, 3,888 Following, 92 Posts - See Instagram photos and videos from Victorya Addad (@vickyxlikexwoahhhh) 2024.01.05 722.1K Views. Hotleak is the best free porn site of Millions Exclusive Leak contents such as Images, Gallery and Videos. Anal Ass feet free Gallery Latest Leak Leaked leaks Lewd mega Naked Nude NUDES Onlyfans Porn reddit Sex toes Victoryaxo victoryaxo nude victoryaxo nude leaked victoryaxo onlyfans leak. Previous article Eliza Rose Watson Onlyfans Full Nude Video Leaked.Watch Thick PAWG Iamvictorya Getting Fucked in the Shower video on xHamster - the ultimate collection of free Whipping & Pissing HD porn tube movies!32K Views. 05:31. 87%. 1. 2. Enjoy iamvictorya Porn Videos on XOrgasmo.com totally FREE, iamvictorya XXX totally Nude, Masturbating and Fucking, creating porn content for different categories.teaseswinger Onlyfans Nudes Leaks (289 photos + 5 videos) Kristina Rose - kristinarose Onlyfans Nudes Leaks… ← Helenka Demidova OnlyFans Leaks (50 Photos) → shaiden rouge – realshaidenrouge OnlyFans Leaks (50 Photos). maddie price onlyfans Model - 2M Followers, 3,888 Following, 92 Posts - See Instagram photos and videos from Victorya Addad (@vickyxlikexwoahhhh) hustler centrefolds VICTORYAXO 👇🏽🔥 link. Amateur Booty Chubby Feet/Legs. 87 0 8 Jul 26, 2022 · Watch Latest Celebrity Leaked Nude Photos and Videos from Onlyfans, Twitch, Snapchat, YouTube, Instagram, iCloud Leaks, Online Uncensored Footage, 18+ Movies, Porns, Famous Celeb Sex Tapes and Nipple slips, Scandals, Patreon models, Cosplay, Gamer Girls, and streamers. Discover Hot and Sexy Girls Premium Contents for Free! Victoryaxo is riding her lover's subrigid penis in front of the camera and enjoying it a lot. Be responsible, know what your children are doing online. Victoryaxo Tube and other famous pornstars at TubePornstars.com. TubePornstars is one of the most complete pornstar databases you will ever find! Brazilian Sex Pornstar VictoryaXO Nude, Related posts: Victoryaxo onlyfans porn video Victoryaxo 2022 sex Victoryaxo fucking pussy Hot porn star solo pics Turkish porn star nude Ass porn clips xxx ass videos Javhd pervert redhead asian porn star koda riri gagging and humping on a hard and throbbing cock Jena star porn Alyx star all porn videos ...Victoryaxo - Thick Latina Nudes Photos and Clip from Onlyfans, Patreon, Snapchat, Manyvids, Instagram, Twitter, Twitch, Nudes, Naked. farting lesbians porn 42 93% 37 minutes. 22m 1080p. Updated 80GB Onlyfans Folder in Description. 24 100% 37 minutes. More new porn videos. Iamvictorya Porn Videos! - Victorya Xo, Victoryaxo Onlyfans, Victorya Porn - SpankBang. . big asshole pornstars Welcome to TheGirlGirl™ , a sexy nude girls blog updated daily. It’s made for fans of erotic tasteful nudes, beautiful girls and naked models. Enjoy the naked pictures and don’t forget to bookmark us for daily updates. TheGirlGirl has the largest storage of NSFW photos and videos on the internet.Jul 23, 2021 · Victoryaxo OnlyFans Leaks (47 Photos + 2 Videos) Victoryaxo OnlyFans Leaks (49 Photos + 4 Videos) Red Rose - Rosanag OnlyFans OnlyFans Leaks (46… Josipa Karimovic - karimovicjosipa -… ilovesarahj Onlyfans Nudes Leaks (192 photos + 5 videos) jasminegtv Onlyfans Nudes Leaks (190 photos + 5 videos) . womens boobs naked 14 results found. 1. Pornstars. Use family filters of your operating systems and/or browsers; When using a search engine such as Google, Bing or Yahoo; check the safe search settings where you can exclude adult content sites from your search results; Ask your internet service provider if they offer additional filters;Watch porn and videos from Victoryaxo on TubeOrigin. New POV Anal Creampie Fuck Thick Bubble Ass Babe Watch now2 min. victoria matos masturbandose parte 3. SD. 10 min. Curvy big natural tits milf fucked standing anal homemade. HD+. 5 min. Victoryaxo - Pool Side Twerking (Ass Naked), One of the greatest porn sites of the world; most special HD porn videos of XNXX.COM are here. To taste this unique category, take a look at them and enjoy yourself.Mackenzie Jones Onlyfans Leak Pussy Play Video. a day ago. Watch Victoryaxo Porn Fucked From Behind Video on Gotanynudes.com, the best amateur celebrity porn site. Gotanynudes is home to daily free teen nudes full of the hottest celebs, Twitch streamers and Youtubers. The best tiktok and movie sex tapes XXX here.Victoryaxo exclusive sextape nude porn leaked. in Onlyfans Premium. Victoryaxo exclusive sextape nude porn leaked. June 10, 2021, 7:11 pm 968.7k Views.Welcome to TheGirlGirl™ , a sexy nude girls blog updated daily. It’s made for fans of erotic tasteful nudes, beautiful girls and naked models. Enjoy the naked pictures and don’t forget to bookmark us for daily updates. TheGirlGirl has the largest storage of NSFW photos and videos on the internet.Victoryaxo Leaks - Onlyfans Nudes. Watch Victoryaxo Free Videos Now!Victoryaxo leaks onlyfans videos. She is a Onlyfans Nude Amateur for dirty clips and sometimes she is fucking someone and making great porn, we're happy when she is showing her naked body and thats why we're provide you her best video leaks here.Free Nude Pictures Galleries Free porn pics – tons of hardcore galleries, pictures and sex images. Naked girls and women: amateurs and pornstars. . naked female boobs Victoryaxo is riding her lover's subrigid penis in front of the camera and enjoying it a lot. Be responsible, know what your children are doing online. Victoryaxo Tube and other famous pornstars at TubePornstars.com. TubePornstars is one of the most complete pornstar databases you will ever find!New Videos Tagged with victoryaxo. HD. 19:24. Victorya Flew Out. HD. 7:32. South Beach Ass Parade. HD. 16:47. Victoryaxo - Thick Latina Nudes Photos and Clip from Onlyfans, Patreon, Snapchat, Manyvids, Instagram, Twitter, Twitch, Nudes, NakedVICTORYAXO 👇🏽🔥 link. Amateur Booty Chubby Feet/Legs. 87 0 8MackzJones Nude Fucking Herself With Vibrator Porn Video. Asianbunnyx Onlyfans Leak Eevee Cosplay Dildo Ppv Video. Alinity Stripping Full Nude Christmas Tree Fansly Video. Yuuie Nude Shower Twitch Onlyfans Video. Strawberrytabby Onlyfans Live Hottub Titty Job Video.Victoryaxo exclusive sextape nude porn leaked. in Onlyfans Premium. Victoryaxo exclusive sextape nude porn leaked. June 10, 2021, 7:11 pm 968.7k Views.Victoryaxo - Thick Latina Nudes Photos and Clip from Onlyfans, Patreon, Snapchat, Manyvids, Instagram, Twitter, Twitch, Nudes, NakedVictoryaXO He sprays his milk all over my face. OnlyFans. December 23rd, 2022.May 20, 2022 · December 9, 2023. December 9, 2023. VictoryaXO Nude Masturbation Video Leaked. Discover Free Leaked Onlyfans, Patreon, Nude Youtube Videos only on InternetChicks.com. Apr 10, 2022 · Top Celeb Nudes of Victoryaxo OnlyFans Leaks (49 Photos + 4 Videos) - Victoryaxo is sexy! We bet you’re wondering how she got such a body, right? Well, she Sexy Victoryaxo – Thick Latina Nudes Leaks. about a year ago 683.8k Views. Share. Share on Pinterest Share on Facebook Share on Twitter. Victoryaxo (iamvictoryaa) Nudes, Victoryaxo (iamvictoryaa) Naked Photos and Clip from Onlyfans, Patreon, Snapchat, Manyvids, Instagram, Twitter and Twitch.Jul 23, 2021 · Victoryaxo OnlyFans Leaks (47 Photos + 2 Videos) Victoryaxo OnlyFans Leaks (49 Photos + 4 Videos) Red Rose - Rosanag OnlyFans OnlyFans Leaks (46… Josipa Karimovic - karimovicjosipa -… ilovesarahj Onlyfans Nudes Leaks (192 photos + 5 videos) jasminegtv Onlyfans Nudes Leaks (190 photos + 5 videos) 2 min. victoria matos masturbandose parte 3. SD. 10 min. Curvy big natural tits milf fucked standing anal homemade. HD+. 5 min. Victoryaxo - Pool Side Twerking (Ass Naked), One of the greatest porn sites of the world; most special HD porn videos of XNXX.COM are here. To taste this unique category, take a look at them and enjoy yourself.Victoryaxo's New Albums. victoryaxo onlyfans sex galleries part 2. 2 years ago. 15 photos. Onlyfans great victoryaxo nude gal leaks 5. 2 years ago. 15 photos. victoryaxo terrific onlyfans sex picture mega pack part 8. 2 years ago.5:48. Coco Bunnie AirBnB Sextape. HD. 10:18. Bad Bitches Only. HD. 10:18. Victorya, Coco & Teresa. gem jewels katt leya thestrokexxx cum swallow crystal lust jayla page thick ass redbones spitroast live shows minxxx mami gianyy petite baddies bbc backshots big booty latinas zmeena orr tatted pawg amber dyme summerntae victoryaxo baddiehub dildo ... Tags: - victoryaxo huge facial onlyfans. Thothub is the home of daily free leaked nudes from the hottest female Twitch, YouTube, Patreon, Instagram, OnlyFans, TikTok models and streamers. Choose from the widest selection of Sexy Leaked Nudes, Accidental Slips, Bikini Pictures, Banned Streamers and Patreon Creators.. womans naked butt Victoryaxo exclusive sextape nude porn leaked. in Onlyfans Premium. Victoryaxo exclusive sextape nude porn leaked. June 10, 2021, 7:11 pm 968.7k Views.2 years ago. Enjoy Victoryaxo Nude Fucking Porn Video Leaked on LewdStars! The Best Premium Porn Site. Discover the full collection of premium videos and photos.OnlyFans Victorya Addad / @victoryaxo. Thread starter enigma1984; Start date May 17, 2023; enigma1984 Well-known member. Approved. May 17, 2023 #1 NicknameJustmyfans.pics is the best place for watching hot VictoryaXO Sex Tape nude photos and videos collection. Here you will find just the best Leaked OnlyFans porn gathered at one place for your convenience. So, be ready to enjoy the best VictoryaXO Sex Tape collection ever on the Justmyfans.pics and get real sexual satisfaction.iamvictoryaa / vickyxlikexwoahhhh / victoryaxo. Undress AI. Next Page Leak. victoryaxo Iamvictorya victorya sex tape Blowjob and nudes photos leaks online from her onlyfans, patreon, private premium, Cosplay, geek & gamer. brazilian & lebanese Instagram @Iamvictorya SEE MORE ON fapfappy.com!Victoryaxo (iamvictoryaa) Nudes, Victoryaxo (iamvictoryaa) Naked Photos and Clip from Onlyfans, Patreon, Snapchat, Manyvids, Instagram, Twitter and Twitch Watch Victoryaxo Latest Leaked Premium Snapchat Video Daily, Also more from Onlyfans & Discover The Biggest Collections Videos Of NSFW Models Amateurs Sexy Girls Videos ManyVids, Patreon, MFC ...2 min. victoria matos masturbandose parte 3. SD. 10 min. Curvy big natural tits milf fucked standing anal homemade. HD+. 5 min. Victoryaxo - Pool Side Twerking (Ass Naked), One of the greatest porn sites of the world; most special HD porn videos of XNXX.COM are here. To taste this unique category, take a look at them and enjoy yourself.Jul 1, 2022 · Brazilian Sex Pornstar VictoryaXO Nude, Related posts: Victoryaxo onlyfans porn video Victoryaxo 2022 sex Victoryaxo fucking pussy Hot porn star solo pics Turkish porn star nude Ass porn clips xxx ass videos Javhd pervert redhead asian porn star koda riri gagging and humping on a hard and throbbing cock Jena star porn Alyx star all porn videos ... Victoryaxo's New Videos. There is no data in this list. mookiemillyonia onlyfans shows part 1. 10 months ago. 8:15. this model has no albums. ADS. Embereon onlyfans nude video pack part 3. 1 year ago.iamvictoryaa | vickyxlikexwoahhhh | victoryaxo. Leaked Content; Victorya Addad Nude OnlyFans. 943 844x1500 120 Kb. ... Nude and uncensored pictures of Victorya Addad ... Nov 16, 2022 · The hottest Victoryaxo nude photos & videos leaked from Onlyfans, Twitch, Instagram, Twitter and others sites are gathered on ladyda.com making the best collection of hot stuff. Victoryaxo nude pics and clips are here for your true fun, joy and satisfaction! So feel free scrolling Victoryaxo nude photos and watching Victoryaxo clips! 0% OnlyFans 5 months ago. 66% Big Boobs 11 months ago. 100% Blowjob 3 months ago. 78% Big Boobs 1 year ago. 59% Premium 3 years ago. 27% Premium 3 years ago. 100% OnlyFans 2 months ago. 74% HD Premium 5 years ago. Victoryaxo Onlyfans Brazillian Babe Twerking.. katee katee owen Victoryaxo - Thick Latina Nudes Photos and Clip from Onlyfans, Patreon, Snapchat, Manyvids, Instagram, Twitter, Twitch, Nudes, NakedTags: - victoryaxo huge facial onlyfans. Thothub is the home of daily free leaked nudes from the hottest female Twitch, YouTube, Patreon, Instagram, OnlyFans, TikTok models and streamers. Choose from the widest selection of Sexy Leaked Nudes, Accidental Slips, Bikini Pictures, Banned Streamers and Patreon Creators.32K Views. 05:31. 87%. 1. 2. Enjoy iamvictorya Porn Videos on XOrgasmo.com totally FREE, iamvictorya XXX totally Nude, Masturbating and Fucking, creating porn content for different categories. VictoryaXo or iamVictorya is a famous Lebanese BBW model from Instagram and Onlyfans! She does have more than 1.9 million followers on her Instagram. Furthermore, she goes completely nude and does hardcore porn scenes on her onlyfans. A big beautiful woman with really amazing ass, iamVictorya or victoryaxo!VICTORYAXO 👇🏽🔥 link. Amateur Booty Chubby Feet/Legs. 87 0 8MackzJones Nude Fucking Herself With Vibrator Porn Video. Asianbunnyx Onlyfans Leak Eevee Cosplay Dildo Ppv Video. Alinity Stripping Full Nude Christmas Tree Fansly Video. Yuuie Nude Shower Twitch Onlyfans Video. Strawberrytabby Onlyfans Live Hottub Titty Job Video.Switch to the dark mode that's kinder on your eyes at night time. Switch to the light mode that's kinder on your eyes at day time.42 93% 37 minutes. 22m 1080p. Updated 80GB Onlyfans Folder in Description. 24 100% 37 minutes. More new porn videos. Iamvictorya Porn Videos! - Victorya Xo, Victoryaxo Onlyfans, Victorya Porn - SpankBang. 14 results found. 1. Pornstars. Use family filters of your operating systems and/or browsers; When using a search engine such as Google, Bing or Yahoo; check the safe search settings where you can exclude adult content sites from your search results; Ask your internet service provider if they offer additional filters; 0% OnlyFans 5 months ago. 66% Big Boobs 11 months ago. 100% Blowjob 3 months ago. 78% Big Boobs 1 year ago. 59% Premium 3 years ago. 27% Premium 3 years ago. 100% OnlyFans 2 months ago. 74% HD Premium 5 years ago. Victoryaxo Onlyfans Brazillian Babe Twerking.Top Celeb Nudes of Victoryaxo OnlyFans Leaks (49 Photos + 4 Videos) - Victoryaxo is sexy! We bet you’re wondering how she got such a body, right? Well, she. man licking pusy aka Victorya Addad / Victorya Hubicki / victoryaxo. User Rating: 8.38/10 (47 votes) Rollover to rate this babe. Current rank: #13803. 41 have favorited her. Age: 23 years young. Born: Wednesday 23rd of February 2000. Birthplace: Florida, United States.. bondag woman Watch Latest Celebrity Leaked Nude Photos and Videos from Onlyfans, Twitch, Snapchat, YouTube, Instagram, iCloud Leaks, Online Uncensored Footage, 18+ Movies, Porns, Famous Celeb Sex Tapes and Nipple slips, Scandals, Patreon models, Cosplay, Gamer Girls, and streamers. Discover Hot and Sexy Girls Premium Contents for Free! Graciebon Onlyfans ...VictoryaXO Nude Livestream Video Leaked. 4 months ago. Nuvid. No video available 80% 18:17. Tokyo And Friend Big Booty. 11 months ago. Eporner. No video available 68% ...Victoryaxo Tube Search (42 videos) 13:51 Kendra Karter (Kendrakarter) & Victoryaxo Onlyfans drtuber, babes, blondes, brunettes, yesterday. 19:24 Curvy Brunette Latina - Victoryaxo tnaflix, latina, brunettes, anal sex, oral sex, pornstars, ass, milf, 1 week. 07:10 Big-Chested Brown-Haired, Victoryaxo Is Finger-Tickling Her Moist Vulva In Front ... Best Leaks of Onlyfans: Victoryaxo Leaked Nudes (81 Photos + 1 Videos)Welcome to TheGirlGirl™ , a sexy nude girls blog updated daily. It’s made for fans of erotic tasteful nudes, beautiful girls and naked models. Enjoy the naked pictures and don’t forget to bookmark us for daily updates. TheGirlGirl has the largest storage of NSFW photos and videos on the internet.Aug 18, 2020 · Leak. victoryaxo Iamvictorya victorya sex tape Blowjob and nudes photos leaks online from her onlyfans, patreon, private premium, Cosplay, geek & gamer. brazilian & lebanese Instagram @Iamvictorya SEE MORE ON fapfappy.com! Victoryaxo - Pool Side Twerking (Ass Naked) 32 sec Chief1459 - 218.4k Views -. Victoryaxo - Drips Nut From Her Vaginal Cream Pie. 17 sec Chief1459 - 142.1k Views -. 1080p. Victorya. 12 sec Rocco Barocco - 11k Views -. Victoryaxo,free videos, latest updates and direct chat. VictoryaXO Nude Livestream Video Leaked. 4 months ago. IcePorn. No video available 67% 13:48. Victoryaxo and Kendra Karter. 1 year ago. MatureTubeHere. No video ...Watch porn and videos from Victoryaxo on TubeOrigin. New POV Anal Creampie Fuck Thick Bubble Ass Babe Watch now . idatki seiki 14 results found. 1. Pornstars. Use family filters of your operating systems and/or browsers; When using a search engine such as Google, Bing or Yahoo; check the safe search settings where you can exclude adult content sites from your search results; Ask your internet service provider if they offer additional filters; Mar 26, 2021 · VictoryaXo or iamVictorya is a famous Lebanese BBW model from Instagram and Onlyfans! She does have more than 1.9 million followers on her Instagram. Furthermore, she goes completely nude and does hardcore porn scenes on her onlyfans. A big beautiful woman with really amazing ass, iamVictorya or victoryaxo! Aug 14, 2022 · by Mymy · 14.08.2022. video,graciebon,,free,sex Graciebon Porn – Gracie Bon & Ssbbw Stephanie Videos – SpankBang bbw graciebon Porn Pics and XXX Videos graciebon tiny asshole pussy…. Spread the loveEnjoy the best pack Graciebon Victoryaxo Porn OnlyFans Update free Graciebon Victoryaxo Porn Porn Videos & Photos, Graciebon Victoryaxo Porn ... Aug 18, 2020 · Leak. victoryaxo Iamvictorya victorya sex tape Blowjob and nudes photos leaks online from her onlyfans, patreon, private premium, Cosplay, geek & gamer. brazilian & lebanese Instagram @Iamvictorya SEE MORE ON fapfappy.com! Victoryaxo - Drips Nut From Her Vaginal Cream Pie. 17 sec Chief1459 - 100% -. Instagram model Mollywoodz naked. 3 min Karlanga69 - 100% -. 1080p. Insane Oily Booty Twerking. 28 sec Paige Steele XXX - 205.1k Views -. 360p. Found her on IG @cloutaddic.aka Victorya Addad / Victorya Hubicki / victoryaxo. User Rating: 8.38/10 (47 votes) Rollover to rate this babe. Current rank: #13803. 41 have favorited her. Age: 23 years young. Born: Wednesday 23rd of February 2000. Birthplace: Florida, United States. Victorya photos & videos. EroMe is the best place to share your erotic pics and porn videos. Every day, thousands of people use EroMe to enjoy free photos and videos. Victoryaxo – Thick Latina Nudes. Posted on October 28, 2020 Recently updated on June 3, 2021. Victoryaxo (iamvictoryaa) Nudes, Victoryaxo (iamvictoryaa) Naked Photos and Clip from Onlyfans, Patreon, Snapchat, Manyvids, Instagram, Twitter and Twitch. . jessica alba nude leakspennis pump porn VictoryaXO Nude Livestream Video Leaked. 4 months ago. Nuvid. No video available 80% 18:17. Tokyo And Friend Big Booty. 11 months ago. Eporner. No video available 68% ... Victoryaxo VictoryaXo New BBC Sextape VictoryaXo New Kkvsh nudes Maria Gjieli, VictoryaXo, Alexas Morgan Orgy victoryaxo sextapes VictoryaXo BBC Anal Creampie VictoryaXo & Alexas Morgan Threesome VictoryaXO BBC Threesome @VictoryaXo VictoryaXo New BBC Victoryaxo creampie VictoryaXo BBC Pounding on the Side of the Road VictoryaXo Sextape POV ... MackzJones Nude Fucking Herself With Vibrator Porn Video. Asianbunnyx Onlyfans Leak Eevee Cosplay Dildo Ppv Video. Alinity Stripping Full Nude Christmas Tree Fansly Video. Yuuie Nude Shower Twitch Onlyfans Video. Strawberrytabby Onlyfans Live Hottub Titty Job Video.Victoryaxo Tube Search (42 videos) 13:51 Kendra Karter (Kendrakarter) & Victoryaxo Onlyfans drtuber, babes, blondes, brunettes, yesterday. 19:24 Curvy Brunette Latina - Victoryaxo tnaflix, latina, brunettes, anal sex, oral sex, pornstars, ass, milf, 1 week. 07:10 Big-Chested Brown-Haired, Victoryaxo Is Finger-Tickling Her Moist Vulva In Front ...Victoryaxo VictoryaXo New BBC Sextape VictoryaXo New Kkvsh nudes Maria Gjieli, VictoryaXo, Alexas Morgan Orgy victoryaxo sextapes VictoryaXo BBC Anal Creampie VictoryaXo & Alexas Morgan Threesome VictoryaXO BBC Threesome @VictoryaXo VictoryaXo New BBC Victoryaxo creampie VictoryaXo BBC Pounding on the Side of the Road VictoryaXo Sextape POV ... Watch porn and videos from Victoryaxo on TubeOrigin. New POV Anal Creampie Fuck Thick Bubble Ass Babe Watch now victoryaxo leaked nudes #victoryaxo-nude, #victoryaxo-leaks, #victoryaxo-leakedJun 1, 2022. #20. Kumi19x said: Here you go. But there aren't pics these are all videos. I hate the ads but once you get pass them, at the bottom of the page there's a green button that says "get link" and there she goes. Don't follow any of the pop ups.New Videos Tagged with victoryaxo. 252 views 1:24. Victoryaxo pussy play. 3 days ago. Private 431 views 17:50. Victoryaxo. 4 days ago. 1.7K views 17:48. Victoryaxo x Gucci3rdLeg- XMas Facial. Victoryaxo is riding her lover's subrigid penis in front of the camera and enjoying it a lot. Be responsible, know what your children are doing online. Victoryaxo Tube and other famous pornstars at TubePornstars.com. TubePornstars is one of the most complete pornstar databases you will ever find! Watch newest Victoryaxo nudes videos & photos for free on sexdug.com and discover the biggest videos collections of leaked content! Instagram, snapchat, onlyfans and patreon models.. Iamvictoryaxo porn video victoryaxo leaked horny hot fuck getting fucked by a guy in a sex video.Oct 28, 2020 · Victoryaxo - Thick Latina Nudes Photos and Clip from Onlyfans, Patreon, Snapchat, Manyvids, Instagram, Twitter, Twitch, Nudes, Naked Victoryaxo has become a Trending Sensation on ViralPornhub.com lately, specially cause of the latest Victoryaxo Nudes. We Love watching as Victoryaxo gets naked on Cam for us, don't We? ViralPornhub.com keeps it's directory of Nude Videos upto date with the latest Victoryaxo Porn Videos and Pics, So We can keep You Satisfied.Sexy Victoryaxo – Thick Latina Nudes Leaks. about a year ago 683.8k Views. Share. Share on Pinterest Share on Facebook Share on Twitter. Victoryaxo (iamvictoryaa) Nudes, Victoryaxo (iamvictoryaa) Naked Photos and Clip from Onlyfans, Patreon, Snapchat, Manyvids, Instagram, Twitter and Twitch.Victoryaxo naked and topless leaked from onlyfans. This is a mega archive of all kinds of Celebrity Leaked Videos, Pictures Collections. Watch OnlyFans Leaks, Online Uncensored Footage, 18+ Leaked & porn videos, Adult videos, Sex Tapes, Scandal videos, Nude, Fappening and more. Leaked Nude Video of Victoryaxo leaked sextape doggystyle freeVictoryaxo's New Albums. victoryaxo onlyfans sex galleries part 2. 2 years ago. 15 photos. Onlyfans great victoryaxo nude gal leaks 5. 2 years ago. 15 photos. victoryaxo terrific onlyfans sex picture mega pack part 8. 2 years ago.victoryaxo porn. by Serg · April 18, 2022. Watch victoryaxo to my loyal subscribers highly requested from new fans xxx onlyfans porn videos on CamStreams.tv. Iamvictoryaxo porn video victoryaxo leaked horny hot fuck getting fucked by a guy in a sex video. Watch hot chubby instagram model iamvictoryaxo fucking with guy in a leaked porn video.Apr 10, 2022 · Top Celeb Nudes of Victoryaxo OnlyFans Leaks (49 Photos + 4 Videos) - Victoryaxo is sexy! We bet you’re wondering how she got such a body, right? Well, she Watch Thick PAWG Iamvictorya Getting Fucked in the Shower video on xHamster - the ultimate collection of free Whipping & Pissing HD porn tube movies!. sailor moon henati Victoryaxo. Review- Good. I stumbled upon this cutie on Instagram, of course she had a linktree all the baddies, but to my surprise she had an onlyfans on there so of course I clicked and subscribed for $5. I’m honestly pleased but yet also a lil bit teased. Looks: To start off, to me she is very cute but her body, my god, her body is ... iamvictoryaa | vickyxlikexwoahhhh | victoryaxo. Leaked Content; Victorya Addad Nude OnlyFans. 943 844x1500 120 Kb. ... Nude and uncensored pictures of Victorya Addad ...Watch Victoryaxo Onlyfans porn videos for free, here on Pornhub.com. Discover the growing collection of high quality Most Relevant XXX movies and clips. No other sex tube is more popular and features more Victoryaxo Onlyfans scenes than Pornhub!Check out these Top Onlyfans Premium Leaks of Victoryaxo leaked sextape doggystyle free by ThotHub Leaks. korean onlyfan Browse and download free leaked nude of 💋 RATED FATTEST PUSSY ON ONLYFANS 💦😈 ( victoryaxo ) celebrities and stars. Stay updated with only the most relevant leaks.Free Nude Pictures Galleries Free porn pics – tons of hardcore galleries, pictures and sex images. Naked girls and women: amateurs and pornstars. Victoryaxo - Thick Latina Nudes Photos and Clip from Onlyfans, Patreon, Snapchat, Manyvids, Instagram, Twitter, Twitch, Nudes, NakedVictoryaxo naked and topless leaked from onlyfans. This is a mega archive of all kinds of Celebrity Leaked Videos, Pictures Collections. Watch OnlyFans Leaks, Online Uncensored Footage, 18+ Leaked & porn videos, Adult videos, Sex Tapes, Scandal videos, Nude, Fappening and more. Leaked Nude Video of Victoryaxo leaked sextape doggystyle freeVictoryaXO Nude Livestream Video Leaked. 4 months ago. Nuvid. No video available 80% 18:17. Tokyo And Friend Big Booty. 11 months ago. Eporner. No video available 68% .... porn lesbian public Nov 4, 2021 · Switch to the dark mode that's kinder on your eyes at night time. Switch to the light mode that's kinder on your eyes at day time. Victoryaxo - Drips Nut From Her Vaginal Cream Pie. 17 sec Chief1459 - 100% -. Instagram model Mollywoodz naked. 3 min Karlanga69 - 100% -. 1080p. Insane Oily Booty Twerking. 28 sec Paige Steele XXX - 205.1k Views -. 360p. Found her on IG @cloutaddic. Victoryaxo mega onlyfans. by Mymy · 24.08.2022. Top Celeb Nudes of Victoryaxo Onlyfans Latest Nude Gallery Leaked – Nala Fitness Onlyfans Nude Gallery Leaked Iamvictoryaxo porn video victoryaxo…. Name: [OnlyFans] Victoryaxo – MegaPack.Sep 28, 2022 · Watch Latest Celebrity Leaked Nude Photos and Videos from Onlyfans, Twitch, Snapchat, YouTube, Instagram, iCloud Leaks, Online Uncensored Footage, 18+ Movies, Porns, Famous Celeb Sex Tapes and Nipple slips, Scandals, Patreon models, Cosplay, Gamer Girls, and streamers. Discover Hot and Sexy Girls Premium Contents for Free! Graciebon Onlyfans ... VICTORYAXO 👇🏽🔥 link. Amateur Booty Chubby Feet/Legs. 87 0 8Victoryaxo sex 2022. by Mymy · 18.02.2022. Victoryaxo Homemade BBC 33 Min Sextape October 2021 Victoryaxo Pov BBC Sextape, Victoryaxo SEX TAPE, Victoryaxo leak, Victoryaxo Tapes leaks, Victoryaxo nudes, Victoryaxo Instagram Nudes, Victoryaxo Instagram SEX TAPE. Latest Victoryaxo Sex Tapes 2021, Victoryaxo Reverse Cowgirl POV, Victoryaxo Latest.Aug 24, 2022 · Victoryaxo mega onlyfans. by Mymy · 24.08.2022. Top Celeb Nudes of Victoryaxo Onlyfans Latest Nude Gallery Leaked – Nala Fitness Onlyfans Nude Gallery Leaked Iamvictoryaxo porn video victoryaxo…. Name: [OnlyFans] Victoryaxo – MegaPack. victoryaxo nude. By JackBro January 7, 2024 January 7, 2024 JackBro January 7, 2024 January 7, 2024Victoryaxo sextape leaked. 3 years ago 968.7k Views. Share. Share on Pinterest Share on Facebook Share on Twitter. leaked sextape Victoryaxo. Previous article Lety Does Stuff Nude Patreon Christmas Lesbian Porn Video Leaked. Next article Mikaela Pascal Nude In The Kitchen Onlyfans Set.Browse and download free leaked nude of 💋 RATED FATTEST PUSSY ON ONLYFANS 💦😈 ( victoryaxo ) celebrities and stars. Stay updated with only the most relevant leaks.by Mymy · 14.08.2022. video,graciebon,,free,sex Graciebon Porn – Gracie Bon & Ssbbw Stephanie Videos – SpankBang bbw graciebon Porn Pics and XXX Videos graciebon tiny asshole pussy…. Spread the loveEnjoy the best pack Graciebon Victoryaxo Porn OnlyFans Update free Graciebon Victoryaxo Porn Porn Videos & Photos, Graciebon Victoryaxo Porn ...2 min. victoria matos masturbandose parte 3. SD. 10 min. Curvy big natural tits milf fucked standing anal homemade. HD+. 5 min. Victoryaxo - Pool Side Twerking (Ass Naked), One of the greatest porn sites of the world; most special HD porn videos of XNXX.COM are here. To taste this unique category, take a look at them and enjoy yourself.Victorya Porn - Victorya Xo & Victoryaxo Onlyfans Videos - SpankBang. 40m. vs lady victorya. 84K 93% 7 years. 4m. Victorya moaning hot. 740 100% 2 months. 9m 1080p. victorya w.Mackenzie Jones Onlyfans Leak Pussy Play Video. a day ago. Watch Victoryaxo Porn Fucked From Behind Video on Gotanynudes.com, the best amateur celebrity porn site. Gotanynudes is home to daily free teen nudes full of the hottest celebs, Twitch streamers and Youtubers. The best tiktok and movie sex tapes XXX here.Watch Iamvictorya tube sex video for free on xHamster, with the hottest collection of Story, Footjob, Solo & Glory Hole HD porn movie scenes! Tags: - victoryaxo huge facial onlyfans. Thothub is the home of daily free leaked nudes from the hottest female Twitch, YouTube, Patreon, Instagram, OnlyFans, TikTok models and streamers. Choose from the widest selection of Sexy Leaked Nudes, Accidental Slips, Bikini Pictures, Banned Streamers and Patreon Creators.. ageplay audio porn VICTORYAXO 👇🏽🔥 link. Amateur Booty Chubby Feet/Legs. 87 0 8 VictoryaXO Nude Livestream Video Leaked. 4 months ago. IcePorn. No video available 67% 13:48. Victoryaxo and Kendra Karter. 1 year ago. MatureTubeHere. No video ...Jun 10, 2021 · Victoryaxo exclusive sextape nude porn leaked. in Onlyfans Premium Leaks. Victoryaxo exclusive sextape nude porn leaked. June 10, 2021, 7:11 pm 968.7k Views. New Videos Tagged with victoryaxo. HD. 19:24. Victorya Flew Out. HD. 7:32. South Beach Ass Parade. HD. 16:47. Dec 30, 2023 · Victoryaxo, a US-based OnlyFans model, prided herself on her bold and seductive persona. Being a 24-year-old, voluptuous woman, she embraced her sensuality and naughty side, as hinted by her username. Since joining the platform in 2019, she has been unapologetically expressing her sensuality and indulging her fans with her enticing content. Jun 10, 2021 · Victoryaxo exclusive sextape nude porn leaked. in Onlyfans Premium Leaks. Victoryaxo exclusive sextape nude porn leaked. June 10, 2021, 7:11 pm 968.7k Views. Jan 11, 2022 · Kristina Rose - kristinarose Onlyfans Nudes Leaks… The Duchess - duchesstheseductress Onlyfans Nudes… ← Jewelz Blu OnlyFans Leaks (49 Photos) → Natalie Wang – nigella_pty OnlyFans Leaks (47 Photos + 2 Videos) Watch Latest Celebrity Leaked Nude Photos and Videos from Onlyfans, Twitch, Snapchat, YouTube, Instagram, iCloud Leaks, Online Uncensored Footage, 18+ Movies, Porns, Famous Celeb Sex Tapes and Nipple slips, Scandals, Patreon models, Cosplay, Gamer Girls, and streamers. Discover Hot and Sexy Girls Premium Contents for Free!. frenni porn Free Nude Pictures Galleries Free porn pics – tons of hardcore galleries, pictures and sex images. Naked girls and women: amateurs and pornstars.Victorya photos & videos. EroMe is the best place to share your erotic pics and porn videos. Every day, thousands of people use EroMe to enjoy free photos and videos.New Videos Tagged with victoryaxo. 252 views 1:24. Victoryaxo pussy play. 3 days ago. Private 431 views 17:50. Victoryaxo. 4 days ago. 1.7K views 17:48. Victoryaxo x Gucci3rdLeg- XMas Facial.New Videos Tagged with victoryaxo. 252 views 1:24. Victoryaxo pussy play. 3 days ago. Private 431 views 17:50. Victoryaxo. 4 days ago. 1.7K views 17:48. Victoryaxo x Gucci3rdLeg- XMas Facial. 10. Next. Watch Victoryaxo Only Fans porn videos for free, here on Pornhub.com. Discover the growing collection of high quality Most Relevant XXX movies and clips. No other sex tube is more popular and features more Victoryaxo Only Fans scenes than Pornhub! Browse through our impressive selection of porn videos in HD quality on any device you own.Watch Iamvictorya tube sex video for free on xHamster, with the hottest collection of Story, Footjob, Solo & Glory Hole HD porn movie scenes! Aug 24, 2022 · Victoryaxo mega onlyfans. by Mymy · 24.08.2022. Top Celeb Nudes of Victoryaxo Onlyfans Latest Nude Gallery Leaked – Nala Fitness Onlyfans Nude Gallery Leaked Iamvictoryaxo porn video victoryaxo…. Name: [OnlyFans] Victoryaxo – MegaPack. . big breast pron iamvictoryaa / vickyxlikexwoahhhh / victoryaxo. Undress AI. Next PageWe would like to show you a description here but the site won’t allow us.Watch Iamvictorya tube sex video for free on xHamster, with the hottest collection of Story, Footjob, Solo & Glory Hole HD porn movie scenes! New Videos Tagged with victoryaxo. HD. 19:24. Victorya Flew Out. HD. 7:32. South Beach Ass Parade. HD. 16:47.aka Victorya Addad / Victorya Hubicki / victoryaxo. User Rating: 8.38/10 (47 votes) Rollover to rate this babe. Current rank: #13803. 41 have favorited her. Age: 23 years young. Born: Wednesday 23rd of February 2000. Birthplace: Florida, United States.Victoryaxo VictoryaXo New BBC Sextape VictoryaXo New Kkvsh nudes Maria Gjieli, VictoryaXo, Alexas Morgan Orgy victoryaxo sextapes VictoryaXo BBC Anal Creampie VictoryaXo & Alexas Morgan Threesome VictoryaXO BBC Threesome @VictoryaXo VictoryaXo New BBC Victoryaxo creampie VictoryaXo BBC Pounding on the Side of the Road VictoryaXo Sextape POV ...Switch to the dark mode that's kinder on your eyes at night time. Switch to the light mode that's kinder on your eyes at day time.Victoryaxo OnlyFans Leaks (47 Photos + 2 Videos) Victoryaxo OnlyFans Leaks (49 Photos + 4 Videos) Red Rose - Rosanag OnlyFans OnlyFans Leaks (46… Josipa Karimovic - karimovicjosipa -… ilovesarahj Onlyfans Nudes Leaks (192 photos + 5 videos) jasminegtv Onlyfans Nudes Leaks (190 photos + 5 videos)Kristina Rose - kristinarose Onlyfans Nudes Leaks… The Duchess - duchesstheseductress Onlyfans Nudes… ← Jewelz Blu OnlyFans Leaks (49 Photos) → Natalie Wang – nigella_pty OnlyFans Leaks (47 Photos + 2 Videos). amsterdam glory hole victoryaxo porn. by Serg · April 18, 2022. Watch victoryaxo to my loyal subscribers highly requested from new fans xxx onlyfans porn videos on CamStreams.tv. Iamvictoryaxo porn video victoryaxo leaked horny hot fuck getting fucked by a guy in a sex video. Watch hot chubby instagram model iamvictoryaxo fucking with guy in a leaked porn video.Best Leaks of Onlyfans: Victoryaxo Leaked Nudes (81 Photos + 1 Videos) 0% OnlyFans 5 months ago. 66% Big Boobs 11 months ago. 100% Blowjob 3 months ago. 78% Big Boobs 1 year ago. 59% Premium 3 years ago. 27% Premium 3 years ago. 100% OnlyFans 2 months ago. 74% HD Premium 5 years ago. Victoryaxo Onlyfans Brazillian Babe Twerking.Assista vídeos pornô de Victoryaxo de graça, aqui no Pornhub.com. Descubra a crescente coleção de vídeos e filmes Mais relevantes explícitos em alta qualidade. Nenhum outro site pornô é mais popular e tem mais cenas de Victoryaxo do que o Pornhub! Navegue pela nossa incrível seleção de de vídeos pornô em HD em qualquer dispositivo ...Victoryaxo is a hot woman and we have her latest 2022 OnlyFans leaked photos and videos. Victoryaxo xxx porn video and its anal, dildo, fucking, tits contents. Victoryaxo topless sextape videos and nude photos in this content and jerk off her amazing body. You should definitely pay attention to the contents of Victoryaxo of leaked.Check out these Top Onlyfans Premium Leaks of Victoryaxo leaked sextape doggystyle free by ThotHub LeaksVICTORYAXO 👇🏽🔥 link. Amateur Booty Chubby Feet/Legs. 87 0 8 Jan 11, 2022 · Kristina Rose - kristinarose Onlyfans Nudes Leaks… The Duchess - duchesstheseductress Onlyfans Nudes… ← Jewelz Blu OnlyFans Leaks (49 Photos) → Natalie Wang – nigella_pty OnlyFans Leaks (47 Photos + 2 Videos) . pornhublive login Graciebon onlyfans pics. by Serg · Published July 26, 2022 · Updated July 26, 2022. Top Celebrity Nudes of graciebon Thicc Onlyfans Nude Gallery Leaked - from OnlyFans! Spread the loveEnjoy the best pack Graciebon Victoryaxo Porn OnlyFans Update free Graciebon Victoryaxo Porn Porn Videos & Photos, Graciebon Victoryaxo Porn pack completo ...victoryaxo porn. by Serg · April 18, 2022. Watch victoryaxo to my loyal subscribers highly requested from new fans xxx onlyfans porn videos on CamStreams.tv. Iamvictoryaxo porn video victoryaxo leaked horny hot fuck getting fucked by a guy in a sex video. Watch hot chubby instagram model iamvictoryaxo fucking with guy in a leaked porn video.Victoryaxo gets her tight asshole fucked . Victoryaxoo. 374K views. 91%. 54 years ago. 0:35 ... Stunning Teen Gone Nude On Her Onlyfans Live Spicevids. 5:56. Watch Victoryaxo Onlyfans porn videos for free, here on Pornhub.com. Discover the growing collection of high quality Most Relevant XXX movies and clips. No other sex tube is more popular and features more Victoryaxo Onlyfans scenes than Pornhub!Victoryaxo is riding her lover's subrigid penis in front of the camera and enjoying it a lot. Be responsible, know what your children are doing online. Victoryaxo Tube and other famous pornstars at TubePornstars.com. TubePornstars is one of the most complete pornstar databases you will ever find!Victoryaxo - Thick Latina Nudes Photos and Clip from Onlyfans, Patreon, Snapchat, Manyvids, Instagram, Twitter, Twitch, Nudes, NakedVictoryaxo OnlyFans Leaks (47 Photos + 2 Videos) Victoryaxo OnlyFans Leaks (49 Photos + 4 Videos) Red Rose - Rosanag OnlyFans OnlyFans Leaks (46… Josipa Karimovic - karimovicjosipa -… ilovesarahj Onlyfans Nudes Leaks (192 photos + 5 videos) jasminegtv Onlyfans Nudes Leaks (190 photos + 5 videos)Victoryaxo - Drips Nut From Her Vaginal Cream Pie. 17 sec Chief1459 - 100% -. Instagram model Mollywoodz naked. 3 min Karlanga69 - 100% -. 1080p. Insane Oily Booty Twerking. 28 sec Paige Steele XXX - 205.1k Views -. 360p. Found her on IG @cloutaddic.. rachel foxxx The hottest Victoryaxo nude photos & videos leaked from Onlyfans, Twitch, Instagram, Twitter and others sites are gathered on ladyda.com making the best collection of hot stuff. Victoryaxo nude pics and clips are here for your true fun, joy and satisfaction! So feel free scrolling Victoryaxo nude photos and watching Victoryaxo clips!2 min. victoria matos masturbandose parte 3. SD. 10 min. Curvy big natural tits milf fucked standing anal homemade. HD+. 5 min. Victoryaxo - Pool Side Twerking (Ass Naked), One of the greatest porn sites of the world; most special HD porn videos of XNXX.COM are here. To taste this unique category, take a look at them and enjoy yourself. Free Nude Pictures Galleries Free porn pics – tons of hardcore galleries, pictures and sex images. Naked girls and women: amateurs and pornstars. Model - 2M Followers, 3,888 Following, 92 Posts - See Instagram photos and videos from Victorya Addad (@vickyxlikexwoahhhh) Victoryaxo Fanbus 1080p. by pawgfanatic. 977 1mo ago 75%. 18:17. Victoryaxo Friend Onlyfans 480p. by Tony-Tigris1. 31,864 11mo ago 100%. 09:41. Victoryaxo Gets Creampied Outside. Watch Victoryaxo Onlyfans porn videos for free, here on Pornhub.com. Discover the growing collection of high quality Most Relevant XXX movies and clips. No other sex tube is more popular and features more Victoryaxo Onlyfans scenes than Pornhub!. nude milf boobs Victoryaxo. Review- Good. I stumbled upon this cutie on Instagram, of course she had a linktree all the baddies, but to my surprise she had an onlyfans on there so of course I clicked and subscribed for $5. I’m honestly pleased but yet also a lil bit teased. Looks: To start off, to me she is very cute but her body, my god, her body is ...MackzJones Nude Fucking Herself With Vibrator Porn Video. Asianbunnyx Onlyfans Leak Eevee Cosplay Dildo Ppv Video. Alinity Stripping Full Nude Christmas Tree Fansly Video. Yuuie Nude Shower Twitch Onlyfans Video. Strawberrytabby Onlyfans Live Hottub Titty Job Video.Justmyfans.pics is the best place for watching hot VictoryaXO Sex Tape nude photos and videos collection. Here you will find just the best Leaked OnlyFans porn gathered at one place for your convenience. So, be ready to enjoy the best VictoryaXO Sex Tape collection ever on the Justmyfans.pics and get real sexual satisfaction.Nov 16, 2022 · The hottest Victoryaxo nude photos & videos leaked from Onlyfans, Twitch, Instagram, Twitter and others sites are gathered on ladyda.com making the best collection of hot stuff. Victoryaxo nude pics and clips are here for your true fun, joy and satisfaction! So feel free scrolling Victoryaxo nude photos and watching Victoryaxo clips! Graciebon onlyfans pics. by Serg · Published July 26, 2022 · Updated July 26, 2022. Top Celebrity Nudes of graciebon Thicc Onlyfans Nude Gallery Leaked - from OnlyFans! Spread the loveEnjoy the best pack Graciebon Victoryaxo Porn OnlyFans Update free Graciebon Victoryaxo Porn Porn Videos & Photos, Graciebon Victoryaxo Porn pack completo ...Mackenzie Jones Onlyfans Leak Pussy Play Video. a day ago. Watch Victoryaxo Porn Fucked From Behind Video on Gotanynudes.com, the best amateur celebrity porn site. Gotanynudes is home to daily free teen nudes full of the hottest celebs, Twitch streamers and Youtubers. The best tiktok and movie sex tapes XXX here.Victoryaxo Leaks - Onlyfans Nudes. Watch Victoryaxo Free Videos Now!Victoryaxo leaks onlyfans videos. She is a Onlyfans Nude Amateur for dirty clips and sometimes she is fucking someone and making great porn, we're happy when she is showing her naked body and thats why we're provide you her best video leaks here.VICTORYAXO 👇🏽🔥 link. Amateur Booty Chubby Feet/Legs. 87 0 842 93% 37 minutes. 22m 1080p. Updated 80GB Onlyfans Folder in Description. 24 100% 37 minutes. More new porn videos. Iamvictorya Porn Videos! - Victorya Xo, Victoryaxo Onlyfans, Victorya Porn - SpankBang. victoryaxo nude. By JackBro January 7, 2024 January 7, 2024 JackBro January 7, 2024 January 7, 2024New Videos Tagged with victoryaxo. HD. 19:24. Victorya Flew Out. HD. 7:32. South Beach Ass Parade. HD. 16:47. Victoryaxo Fanbus 1080p. by pawgfanatic. 977 1mo ago 75%. 18:17. Victoryaxo Friend Onlyfans 480p. by Tony-Tigris1. 31,864 11mo ago 100%. 09:41. Victoryaxo Gets Creampied Outside.. lisa ann porne Free Nude Pictures Galleries Free porn pics – tons of hardcore galleries, pictures and sex images. Naked girls and women: amateurs and pornstars. Graciebon onlyfans pics. by Serg · Published July 26, 2022 · Updated July 26, 2022. Top Celebrity Nudes of graciebon Thicc Onlyfans Nude Gallery Leaked - from OnlyFans! Spread the loveEnjoy the best pack Graciebon Victoryaxo Porn OnlyFans Update free Graciebon Victoryaxo Porn Porn Videos & Photos, Graciebon Victoryaxo Porn pack completo ...Watch Iamvictorya tube sex video for free on xHamster, with the hottest collection of Story, Footjob, Solo & Glory Hole HD porn movie scenes!Brazilian Sex Pornstar VictoryaXO Nude, Related posts: Victoryaxo onlyfans porn video Victoryaxo 2022 sex Victoryaxo fucking pussy Hot porn star solo pics Turkish porn star nude Ass porn clips xxx ass videos Javhd pervert redhead asian porn star koda riri gagging and humping on a hard and throbbing cock Jena star porn Alyx star all porn videos ...Victoryaxo Tube Search (42 videos) 13:51 Kendra Karter (Kendrakarter) & Victoryaxo Onlyfans drtuber, babes, blondes, brunettes, yesterday. 19:24 Curvy Brunette Latina - Victoryaxo tnaflix, latina, brunettes, anal sex, oral sex, pornstars, ass, milf, 1 week. 07:10 Big-Chested Brown-Haired, Victoryaxo Is Finger-Tickling Her Moist Vulva In Front ... Victoryaxo Fanbus 1080p. by pawgfanatic. 977 1mo ago 75%. 18:17. Victoryaxo Friend Onlyfans 480p. by Tony-Tigris1. 31,864 11mo ago 100%. 09:41. Victoryaxo Gets Creampied Outside. Graciebon onlyfans pics. by Serg · Published July 26, 2022 · Updated July 26, 2022. Top Celebrity Nudes of graciebon Thicc Onlyfans Nude Gallery Leaked - from OnlyFans! Spread the loveEnjoy the best pack Graciebon Victoryaxo Porn OnlyFans Update free Graciebon Victoryaxo Porn Porn Videos & Photos, Graciebon Victoryaxo Porn pack completo .... porn stars mexican Assista vídeos pornô de Victoryaxo de graça, aqui no Pornhub.com. Descubra a crescente coleção de vídeos e filmes Mais relevantes explícitos em alta qualidade. Nenhum outro site pornô é mais popular e tem mais cenas de Victoryaxo do que o Pornhub! Navegue pela nossa incrível seleção de de vídeos pornô em HD em qualquer dispositivo ... victoryaxo & Alexas Morgan (alexavip) Onlyfans Star Whores 14:33. 11 972. 1 year ago ... alexas morgan onlyfans nude leaked xxx videos 3:56. 599. 1 year ago.Check out these Top Onlyfans Premium Leaks of Victoryaxo leaked sextape doggystyle free by ThotHub LeaksJul 26, 2022 · Graciebon onlyfans pics. by Serg · Published July 26, 2022 · Updated July 26, 2022. Top Celebrity Nudes of graciebon Thicc Onlyfans Nude Gallery Leaked - from OnlyFans! Spread the loveEnjoy the best pack Graciebon Victoryaxo Porn OnlyFans Update free Graciebon Victoryaxo Porn Porn Videos & Photos, Graciebon Victoryaxo Porn pack completo ... Victoryaxo is a hot woman and we have her latest 2022 OnlyFans leaked photos and videos. Victoryaxo xxx porn video and its anal, dildo, fucking, tits contents. Victoryaxo topless sextape videos and nude photos in this content and jerk off her amazing body. You should definitely pay attention to the contents of Victoryaxo of leaked.Watch Thick PAWG Iamvictorya Getting Fucked in the Shower video on xHamster - the ultimate collection of free Whipping & Pissing HD porn tube movies! iamvictoryaa | vickyxlikexwoahhhh | victoryaxo. Leaked Content; Victorya Addad Nude OnlyFans. 943 844x1500 120 Kb. ... Nude and uncensored pictures of Victorya Addad ...Victorya photos & videos. EroMe is the best place to share your erotic pics and porn videos. Every day, thousands of people use EroMe to enjoy free photos and videos.. hardcore pornography videos Victoryaxo – Thick Latina Nudes. Posted on October 28, 2020 Recently updated on June 3, 2021. Victoryaxo (iamvictoryaa) Nudes, Victoryaxo (iamvictoryaa) Naked Photos and Clip from Onlyfans, Patreon, Snapchat, Manyvids, Instagram, Twitter and Twitch.Watch Thick PAWG Iamvictorya Getting Fucked in the Shower video on xHamster - the ultimate collection of free Whipping & Pissing HD porn tube movies! Watch porn and videos from Victoryaxo on TubeOrigin. New POV Anal Creampie Fuck Thick Bubble Ass Babe Watch nowNew Videos Tagged with victoryaxo. HD. 19:24. Victorya Flew Out. HD. 7:32. South Beach Ass Parade. HD. 16:47. VictoryaXO He sprays his milk all over my face. OnlyFans. December 23rd, 2022.Model - 2M Followers, 3,888 Following, 92 Posts - See Instagram photos and videos from Victorya Addad (@vickyxlikexwoahhhh)Victoryaxo Fanbus 1080p. by pawgfanatic. 977 1mo ago 75%. 18:17. Victoryaxo Friend Onlyfans 480p. by Tony-Tigris1. 31,864 11mo ago 100%. 09:41. Victoryaxo Gets Creampied Outside. Watch Victoryaxo porn videos for free, here on Pornhub.com. Discover the growing collection of high quality Most Relevant XXX movies and clips. No other sex tube is more popular and features more Victoryaxo scenes than Pornhub! 2 min. victoria matos masturbandose parte 3. SD. 10 min. Curvy big natural tits milf fucked standing anal homemade. HD+. 5 min. Victoryaxo - Pool Side Twerking (Ass Naked), One of the greatest porn sites of the world; most special HD porn videos of XNXX.COM are here. To taste this unique category, take a look at them and enjoy yourself. Jul 1, 2022 · Brazilian Sex Pornstar VictoryaXO Nude, Related posts: Victoryaxo onlyfans porn video Victoryaxo 2022 sex Victoryaxo fucking pussy Hot porn star solo pics Turkish porn star nude Ass porn clips xxx ass videos Javhd pervert redhead asian porn star koda riri gagging and humping on a hard and throbbing cock Jena star porn Alyx star all porn videos ... Jul 26, 2022 · Graciebon onlyfans pics. by Serg · Published July 26, 2022 · Updated July 26, 2022. Top Celebrity Nudes of graciebon Thicc Onlyfans Nude Gallery Leaked - from OnlyFans! Spread the loveEnjoy the best pack Graciebon Victoryaxo Porn OnlyFans Update free Graciebon Victoryaxo Porn Porn Videos & Photos, Graciebon Victoryaxo Porn pack completo ... . gay prn Free Nude Pictures Galleries Free porn pics – tons of hardcore galleries, pictures and sex images. Naked girls and women: amateurs and pornstars. New Videos Tagged with victoryaxo. HD. 19:24. Victorya Flew Out. HD. 7:32. South Beach Ass Parade. HD. 16:47. VictoryaXO Nude Livestream Video Leaked. 4 months ago. Nuvid. No video available 80% 18:17. Tokyo And Friend Big Booty. 11 months ago. Eporner. No video available 68% ...Sep 24, 2022 · Victoryaxo is a hot woman and we have her latest 2022 OnlyFans leaked photos and videos. Victoryaxo xxx porn video and its anal, dildo, fucking, tits contents. Victoryaxo topless sextape videos and nude photos in this content and jerk off her amazing body. You should definitely pay attention to the contents of Victoryaxo of leaked. Best Leaks of Onlyfans: Victoryaxo Leaked Nudes (81 Photos + 1 Videos)VictoryaXO Nude Masturbation Video Leaked. 4 months ago. VipTube. No video available 80% 15:52. Victoryaxo Anal Banged. 2 months ago. Eporner. No video available 67% ... . ddlg pronmomandsonsex videos Tags: - victoryaxo huge facial onlyfans. Thothub is the home of daily free leaked nudes from the hottest female Twitch, YouTube, Patreon, Instagram, OnlyFans, TikTok models and streamers. Choose from the widest selection of Sexy Leaked Nudes, Accidental Slips, Bikini Pictures, Banned Streamers and Patreon Creators.Top Celeb Nudes of victoryaxo OnlyFans Leaks (87 Photos + 9 Videos) - Love thicc sluts that are too horny to handle? Victoryaxo is really meaty and reallyVictorya Porn - Victorya Xo & Victoryaxo Onlyfans Videos - SpankBang. 40m. vs lady victorya. 84K 93% 7 years. 4m. Victorya moaning hot. 740 100% 2 months. 9m 1080p. victorya w. Victoryaxo Tube Search (42 videos) 13:51 Kendra Karter (Kendrakarter) & Victoryaxo Onlyfans drtuber, babes, blondes, brunettes, yesterday. 19:24 Curvy Brunette Latina - Victoryaxo tnaflix, latina, brunettes, anal sex, oral sex, pornstars, ass, milf, 1 week. 07:10 Big-Chested Brown-Haired, Victoryaxo Is Finger-Tickling Her Moist Vulva In Front ... Victoryaxo. Review- Good. I stumbled upon this cutie on Instagram, of course she had a linktree all the baddies, but to my surprise she had an onlyfans on there so of course I clicked and subscribed for $5. I’m honestly pleased but yet also a lil bit teased. Looks: To start off, to me she is very cute but her body, my god, her body is ...Victorya Porn - Victorya Xo & Victoryaxo Onlyfans Videos - SpankBang. 40m. vs lady victorya. 84K 93% 7 years. 4m. Victorya moaning hot. 740 100% 2 months. 9m 1080p. victorya w. Mackenzie Jones Onlyfans Leak Pussy Play Video. a day ago. Watch Victoryaxo Porn Fucked From Behind Video on Gotanynudes.com, the best amateur celebrity porn site. Gotanynudes is home to daily free teen nudes full of the hottest celebs, Twitch streamers and Youtubers. The best tiktok and movie sex tapes XXX here. aka Victorya Addad / Victorya Hubicki / victoryaxo. User Rating: 8.38/10 (47 votes) Rollover to rate this babe. Current rank: #13803. 41 have favorited her. Age: 23 years young. Born: Wednesday 23rd of February 2000. Birthplace: Florida, United States. December 9, 2023. December 9, 2023. VictoryaXO Nude Masturbation Video Leaked. Discover Free Leaked Onlyfans, Patreon, Nude Youtube Videos only on InternetChicks.com.5:48. Coco Bunnie AirBnB Sextape. HD. 10:18. Bad Bitches Only. HD. 10:18. Victorya, Coco & Teresa. gem jewels katt leya thestrokexxx cum swallow crystal lust jayla page thick ass redbones spitroast live shows minxxx mami gianyy petite baddies bbc backshots big booty latinas zmeena orr tatted pawg amber dyme summerntae victoryaxo baddiehub dildo ... . hent Victorya Porn - Victorya Xo & Victoryaxo Onlyfans Videos - SpankBang. 40m. vs lady victorya. 84K 93% 7 years. 4m. Victorya moaning hot. 740 100% 2 months. 9m 1080p. victorya w. Victoryaxo is riding her lover's subrigid penis in front of the camera and enjoying it a lot. Be responsible, know what your children are doing online. Victoryaxo Tube and other famous pornstars at TubePornstars.com. TubePornstars is one of the most complete pornstar databases you will ever find!Watch Victoryaxo Onlyfans porn videos for free, here on Pornhub.com. Discover the growing collection of high quality Most Relevant XXX movies and clips. No other sex tube is more popular and features more Victoryaxo Onlyfans scenes than Pornhub!Victoryaxo's New Albums. victoryaxo onlyfans sex galleries part 2. 2 years ago. 15 photos. Onlyfans great victoryaxo nude gal leaks 5. 2 years ago. 15 photos. victoryaxo terrific onlyfans sex picture mega pack part 8. 2 years ago. Jun 1, 2022 · VictoryaXO Ass is SO Thick!! (Keep2share) victoryaxo_is_so_thick_540.mp4 Duration : 15 min 25 s Bit rate : 6 004 kb/s Width : 960 pixels Height : 540 pixels Display aspect ratio : 16:9 Frame rate mode : Constant Frame rate : 23.976 (24000/1001) FPS Color space : YUV Chroma subsampling : 4:2:0 Bit depth : 8 bits Scan type : Progressive Bits/(Pixel*Frame) : 0.483 Stream size : 662 MiB (98% ... VictoryaXO He sprays his milk all over my face. OnlyFans. December 23rd, 2022.. mature sextube 5:48. Coco Bunnie AirBnB Sextape. HD. 10:18. Bad Bitches Only. HD. 10:18. Victorya, Coco & Teresa. gem jewels katt leya thestrokexxx cum swallow crystal lust jayla page thick ass redbones spitroast live shows minxxx mami gianyy petite baddies bbc backshots big booty latinas zmeena orr tatted pawg amber dyme summerntae victoryaxo baddiehub dildo ...Victorya Porn - Victorya Xo & Victoryaxo Onlyfans Videos - SpankBang. 40m. vs lady victorya. 84K 93% 7 years. 4m. Victorya moaning hot. 740 100% 2 months. 9m 1080p. victorya w.People have also searched for: victorya xo big tits victorya xo blowjob victorya xo booty victorya xo brunette victorya xo pussybig ass. Previous page 1 / 1 Next. Victorya Xo Porn Videos! - Victoryaxo Onlyfans, Iamvictorya, Victorya Porn - SpankBang.32K Views. 05:31. 87%. 1. 2. Enjoy iamvictorya Porn Videos on XOrgasmo.com totally FREE, iamvictorya XXX totally Nude, Masturbating and Fucking, creating porn content for different categories. Oct 28, 2020 · Victoryaxo - Thick Latina Nudes Photos and Clip from Onlyfans, Patreon, Snapchat, Manyvids, Instagram, Twitter, Twitch, Nudes, Naked VictoryaXO Nude Livestream Video Leaked. 4 months ago. Nuvid. No video available 80% 18:17. Tokyo And Friend Big Booty. 11 months ago. Eporner. No video available 68% ... Victorya photos & videos. EroMe is the best place to share your erotic pics and porn videos. Every day, thousands of people use EroMe to enjoy free photos and videos.5:48. Coco Bunnie AirBnB Sextape. HD. 10:18. Bad Bitches Only. HD. 10:18. Victorya, Coco & Teresa. gem jewels katt leya thestrokexxx cum swallow crystal lust jayla page thick ass redbones spitroast live shows minxxx mami gianyy petite baddies bbc backshots big booty latinas zmeena orr tatted pawg amber dyme summerntae victoryaxo baddiehub dildo ...Anal Ass feet free Gallery Latest Leak Leaked leaks Lewd mega Naked Nude NUDES Onlyfans Porn reddit Sex toes Victoryaxo victoryaxo nude victoryaxo nude leaked victoryaxo onlyfans leak. Previous article Eliza Rose Watson Onlyfans Full Nude Video Leaked.42 93% 37 minutes. 22m 1080p. Updated 80GB Onlyfans Folder in Description. 24 100% 37 minutes. More new porn videos. Iamvictorya Porn Videos! - Victorya Xo, Victoryaxo Onlyfans, Victorya Porn - SpankBang.Nov 16, 2022 · The hottest Victoryaxo nude photos & videos leaked from Onlyfans, Twitch, Instagram, Twitter and others sites are gathered on ladyda.com making the best collection of hot stuff. Victoryaxo nude pics and clips are here for your true fun, joy and satisfaction! So feel free scrolling Victoryaxo nude photos and watching Victoryaxo clips! Nov 2, 2021 · Enjoy Victoryaxo Nude Fucking Porn Video Leaked on LewdStars! The Best Premium Porn Site. Discover the full collection of premium videos and photos. . sksanmy mtrjm Dec 6, 2020 · Jun 1, 2022. #20. Kumi19x said: Here you go. But there aren't pics these are all videos. I hate the ads but once you get pass them, at the bottom of the page there's a green button that says "get link" and there she goes. Don't follow any of the pop ups. Victoryaxo – Thick Latina Nudes. Posted on October 28, 2020 Recently updated on June 3, 2021. Victoryaxo (iamvictoryaa) Nudes, Victoryaxo (iamvictoryaa) Naked Photos and Clip from Onlyfans, Patreon, Snapchat, Manyvids, Instagram, Twitter and Twitch. VictoryaXO Nude Masturbation Video Leaked. 4 months ago. VipTube. No video available 80% 15:52. Victoryaxo Anal Banged. 2 months ago. Eporner. No video available 67% ...Victoryaxo - Thick Latina Nudes Photos and Clip from Onlyfans, Patreon, Snapchat, Manyvids, Instagram, Twitter, Twitch, Nudes, NakedWe would like to show you a description here but the site won’t allow us. Victoryaxo exclusive sextape nude porn leaked. in Onlyfans Premium. Victoryaxo exclusive sextape nude porn leaked. June 10, 2021, 7:11 pm 968.7k Views.32K Views. 05:31. 87%. 1. 2. Enjoy iamvictorya Porn Videos on XOrgasmo.com totally FREE, iamvictorya XXX totally Nude, Masturbating and Fucking, creating porn content for different categories.Jun 1, 2022 · VictoryaXO Ass is SO Thick!! (Keep2share) victoryaxo_is_so_thick_540.mp4 Duration : 15 min 25 s Bit rate : 6 004 kb/s Width : 960 pixels Height : 540 pixels Display aspect ratio : 16:9 Frame rate mode : Constant Frame rate : 23.976 (24000/1001) FPS Color space : YUV Chroma subsampling : 4:2:0 Bit depth : 8 bits Scan type : Progressive Bits/(Pixel*Frame) : 0.483 Stream size : 662 MiB (98% ... VictoryaXO Nude Livestream Video Leaked. 4 months ago. IcePorn. No video available 67% 13:48. Victoryaxo and Kendra Karter. 1 year ago. MatureTubeHere. No video ...Oct 3, 2022 · Sexy Victoryaxo – Thick Latina Nudes Leaks. about a year ago 683.8k Views. Share. Share on Pinterest Share on Facebook Share on Twitter. Victoryaxo (iamvictoryaa) Nudes, Victoryaxo (iamvictoryaa) Naked Photos and Clip from Onlyfans, Patreon, Snapchat, Manyvids, Instagram, Twitter and Twitch. Free Nude Pictures Galleries Free porn pics – tons of hardcore galleries, pictures and sex images. Naked girls and women: amateurs and pornstars. . first time porn gay Lara Rose Nude Laararosee Onlyfans Leak! Australian girl Lara Rose well-known as Laararosee, She a tiktok, instagram and influencer star. Laararoseb is also an onlyfans creator for adult contents where she upload sex tape and nude. Laararosee been trending after her nudes videos leaked from her of account.Victoryaxo, a US-based OnlyFans model, prided herself on her bold and seductive persona. Being a 24-year-old, voluptuous woman, she embraced her sensuality and naughty side, as hinted by her username. Since joining the platform in 2019, she has been unapologetically expressing her sensuality and indulging her fans with her enticing content.VictoryaXo - OnlyFans. 2 years ago. 93%. Watch your favorite HD and 4k porn videos on PornTrex. Get your daily dose of porn from our huge collection of free hd and 4k porn videos.MackzJones Nude Fucking Herself With Vibrator Porn Video. Asianbunnyx Onlyfans Leak Eevee Cosplay Dildo Ppv Video. Alinity Stripping Full Nude Christmas Tree Fansly Video. Yuuie Nude Shower Twitch Onlyfans Video. Strawberrytabby Onlyfans Live Hottub Titty Job Video.Victoryaxo, a US-based OnlyFans model, prided herself on her bold and seductive persona. Being a 24-year-old, voluptuous woman, she embraced her sensuality and naughty side, as hinted by her username. Since joining the platform in 2019, she has been unapologetically expressing her sensuality and indulging her fans with her enticing content.Oct 28, 2020 · Victoryaxo - Thick Latina Nudes Photos and Clip from Onlyfans, Patreon, Snapchat, Manyvids, Instagram, Twitter, Twitch, Nudes, Naked 2 min. victoria matos masturbandose parte 3. SD. 10 min. Curvy big natural tits milf fucked standing anal homemade. HD+. 5 min. Victoryaxo - Pool Side Twerking (Ass Naked), One of the greatest porn sites of the world; most special HD porn videos of XNXX.COM are here. To taste this unique category, take a look at them and enjoy yourself.VictoryaXo - OnlyFans. 2 years ago. 93%. Watch your favorite HD and 4k porn videos on PornTrex. Get your daily dose of porn from our huge collection of free hd and 4k porn videos.10. Next. Watch Victoryaxo Only Fans porn videos for free, here on Pornhub.com. Discover the growing collection of high quality Most Relevant XXX movies and clips. No other sex tube is more popular and features more Victoryaxo Only Fans scenes than Pornhub! Browse through our impressive selection of porn videos in HD quality on any device you own.2024.01.05 722.1K Views. Hotleak is the best free porn site of Millions Exclusive Leak contents such as Images, Gallery and Videos. . blow job to strangerbig boobed hentia Victoryaxo naked and topless leaked from onlyfans. This is a mega archive of all kinds of Celebrity Leaked Videos, Pictures Collections. Watch OnlyFans Leaks, Online Uncensored Footage, 18+ Leaked & porn videos, Adult videos, Sex Tapes, Scandal videos, Nude, Fappening and more. Leaked Nude Video of Victoryaxo leaked sextape doggystyle freeVictoryaxo's New Albums. victoryaxo onlyfans sex galleries part 2. 2 years ago. 15 photos. Onlyfans great victoryaxo nude gal leaks 5. 2 years ago. 15 photos. victoryaxo terrific onlyfans sex picture mega pack part 8. 2 years ago. Victoryaxo - Drips Nut From Her Vaginal Cream Pie. 17 sec Chief1459 - 100% -. Instagram model Mollywoodz naked. 3 min Karlanga69 - 100% -. 1080p. Insane Oily Booty Twerking. 28 sec Paige Steele XXX - 205.1k Views -. 360p. Found her on IG @cloutaddic. 32K Views. 05:31. 87%. 1. 2. Enjoy iamvictorya Porn Videos on XOrgasmo.com totally FREE, iamvictorya XXX totally Nude, Masturbating and Fucking, creating porn content for different categories. aka Victorya Addad / Victorya Hubicki / victoryaxo. User Rating: 8.38/10 (47 votes) Rollover to rate this babe. Current rank: #13803. 41 have favorited her. Age: 23 years young. Born: Wednesday 23rd of February 2000. Birthplace: Florida, United States. Highly Recommend: Victoryaxo. Absolutely gorgeous Spanish girl with a big ass. Her content started off as mostly implied nudes but now it's full nude, she does show her face with her nude content also. For the most part she posts daily and sometimes several times a day. She does have PPV content but always posts previews of the content, so you ...VictoryaXO Ass is SO Thick!! (Keep2share) victoryaxo_is_so_thick_540.mp4 Duration : 15 min 25 s Bit rate : 6 004 kb/s Width : 960 pixels Height : 540 pixels Display aspect ratio : 16:9 Frame rate mode : Constant Frame rate : 23.976 (24000/1001) FPS Color space : YUV Chroma subsampling : 4:2:0 Bit depth : 8 bits Scan type : Progressive Bits/(Pixel*Frame) : 0.483 Stream size : 662 MiB (98% ...Victoryaxo exclusive sextape nude porn leaked. in Onlyfans Premium. Victoryaxo exclusive sextape nude porn leaked. June 10, 2021, 7:11 pm 968.7k Views.Nov 2, 2021 · Enjoy Victoryaxo Nude Fucking Porn Video Leaked on LewdStars! The Best Premium Porn Site. Discover the full collection of premium videos and photos. VictoryaXO Ass is SO Thick!! (Keep2share) victoryaxo_is_so_thick_540.mp4 Duration : 15 min 25 s Bit rate : 6 004 kb/s Width : 960 pixels Height : 540 pixels Display aspect ratio : 16:9 Frame rate mode : Constant Frame rate : 23.976 (24000/1001) FPS Color space : YUV Chroma subsampling : 4:2:0 Bit depth : 8 bits Scan type : Progressive Bits/(Pixel*Frame) : 0.483 Stream size : 662 MiB (98% ...teaseswinger Onlyfans Nudes Leaks (289 photos + 5 videos) Kristina Rose - kristinarose Onlyfans Nudes Leaks… ← Helenka Demidova OnlyFans Leaks (50 Photos) → shaiden rouge – realshaidenrouge OnlyFans Leaks (50 Photos)VictoryaXo or iamVictorya is a famous Lebanese BBW model from Instagram and Onlyfans! She does have more than 1.9 million followers on her Instagram. Furthermore, she goes completely nude and does hardcore porn scenes on her onlyfans. A big beautiful woman with really amazing ass, iamVictorya or victoryaxo!. big and nice tits Jul 26, 2022 · Watch Latest Celebrity Leaked Nude Photos and Videos from Onlyfans, Twitch, Snapchat, YouTube, Instagram, iCloud Leaks, Online Uncensored Footage, 18+ Movies, Porns, Famous Celeb Sex Tapes and Nipple slips, Scandals, Patreon models, Cosplay, Gamer Girls, and streamers. Discover Hot and Sexy Girls Premium Contents for Free! Jun 10, 2021 · Victoryaxo exclusive sextape nude porn leaked. in Onlyfans Premium Leaks. Victoryaxo exclusive sextape nude porn leaked. June 10, 2021, 7:11 pm 968.7k Views. Apr 10, 2022 · Top Celeb Nudes of Victoryaxo OnlyFans Leaks (49 Photos + 4 Videos) - Victoryaxo is sexy! We bet you’re wondering how she got such a body, right? Well, she Oct 28, 2020 · Victoryaxo - Thick Latina Nudes Photos and Clip from Onlyfans, Patreon, Snapchat, Manyvids, Instagram, Twitter, Twitch, Nudes, Naked Victoryaxo naked and topless leaked from onlyfans. This is a mega archive of all kinds of Celebrity Leaked Videos, Pictures Collections. Watch OnlyFans Leaks, Online Uncensored Footage, 18+ Leaked & porn videos, Adult videos, Sex Tapes, Scandal videos, Nude, Fappening and more. Leaked Nude Video of Victoryaxo leaked sextape doggystyle free. vampires in porn Best Leaks of Onlyfans: Victoryaxo Leaked Nudes (81 Photos + 1 Videos)teaseswinger Onlyfans Nudes Leaks (289 photos + 5 videos) Kristina Rose - kristinarose Onlyfans Nudes Leaks… ← Helenka Demidova OnlyFans Leaks (50 Photos) → shaiden rouge – realshaidenrouge OnlyFans Leaks (50 Photos)Graciebon onlyfans pics. by Serg · Published July 26, 2022 · Updated July 26, 2022. Top Celebrity Nudes of graciebon Thicc Onlyfans Nude Gallery Leaked - from OnlyFans! Spread the loveEnjoy the best pack Graciebon Victoryaxo Porn OnlyFans Update free Graciebon Victoryaxo Porn Porn Videos & Photos, Graciebon Victoryaxo Porn pack completo ...VictoryaXO Nude Livestream Video Leaked. 4 months ago. IcePorn. No video available 67% 13:48. Victoryaxo and Kendra Karter. 1 year ago. MatureTubeHere. No video ...32K Views. 05:31. 87%. 1. 2. Enjoy iamvictorya Porn Videos on XOrgasmo.com totally FREE, iamvictorya XXX totally Nude, Masturbating and Fucking, creating porn content for different categories.Dec 6, 2020 · Jun 1, 2022. #20. Kumi19x said: Here you go. But there aren't pics these are all videos. I hate the ads but once you get pass them, at the bottom of the page there's a green button that says "get link" and there she goes. Don't follow any of the pop ups. Victoryaxo (iamvictoryaa) Nudes, Victoryaxo (iamvictoryaa) Naked Photos and Clip from Onlyfans, Patreon, Snapchat, Manyvids, Instagram, Twitter and Twitch Watch Victoryaxo Latest Leaked Premium Snapchat Video Daily, Also more from Onlyfans & Discover The Biggest Collections Videos Of NSFW Models Amateurs Sexy Girls Videos ManyVids, Patreon, MFC ...Aug 14, 2022 · by Mymy · 14.08.2022. video,graciebon,,free,sex Graciebon Porn – Gracie Bon & Ssbbw Stephanie Videos – SpankBang bbw graciebon Porn Pics and XXX Videos graciebon tiny asshole pussy…. Spread the loveEnjoy the best pack Graciebon Victoryaxo Porn OnlyFans Update free Graciebon Victoryaxo Porn Porn Videos & Photos, Graciebon Victoryaxo Porn ... Welcome to TheGirlGirl™ , a sexy nude girls blog updated daily. It’s made for fans of erotic tasteful nudes, beautiful girls and naked models. Enjoy the naked pictures and don’t forget to bookmark us for daily updates. TheGirlGirl has the largest storage of NSFW photos and videos on the internet.Mar 26, 2021 · VictoryaXo or iamVictorya is a famous Lebanese BBW model from Instagram and Onlyfans! She does have more than 1.9 million followers on her Instagram. Furthermore, she goes completely nude and does hardcore porn scenes on her onlyfans. A big beautiful woman with really amazing ass, iamVictorya or victoryaxo! MackzJones Nude Fucking Herself With Vibrator Porn Video. Asianbunnyx Onlyfans Leak Eevee Cosplay Dildo Ppv Video. Alinity Stripping Full Nude Christmas Tree Fansly Video. Yuuie Nude Shower Twitch Onlyfans Video. Strawberrytabby Onlyfans Live Hottub Titty Job Video.. impregnation pornos Check out these Top Onlyfans Premium Leaks of Victoryaxo leaked sextape doggystyle free by ThotHub LeaksVictoryaxo - Drips Nut From Her Vaginal Cream Pie. 17 sec Chief1459 - 100% -. Instagram model Mollywoodz naked. 3 min Karlanga69 - 100% -. 1080p. Insane Oily Booty Twerking. 28 sec Paige Steele XXX - 205.1k Views -. 360p. Found her on IG @cloutaddic. People have also searched for: victorya xo big tits victorya xo blowjob victorya xo booty victorya xo brunette victorya xo pussybig ass. Previous page 1 / 1 Next. Victorya Xo Porn Videos! - Victoryaxo Onlyfans, Iamvictorya, Victorya Porn - SpankBang. .